(Classical) Johannes Brahms - Symphonies - Helsingborg Symphony Orchestra, Andrew Manze - 2012, FLAC (image+.cue) lossless


 

[Цитировать]

Johannes Brahms - Symphonies - Helsingborg Symphony Orchestra, Andrew Manze
Жанр: Classical
Страна-производитель диска: Germany
Год издания диска: 2012
Издатель (лейбл): CPO
Номер по каталогу: CPO 777720-2
Дата записи: 2009, 2010
Аудиокодек: FLAC
Тип рипа: image+.cue
Битрейт аудио: lossless
Продолжительность: 210:41
Источник: собственный рип
Наличие сканов в содержимом раздачи: да
Треклист:
Johannes Brahms
CD1
[1]-[4] Symphony No.1 in C minor, Op.68
[5]-[14] Variations on a theme of Joseph Haydn, Op.56a
CD2
[1]-[4] Symphony No.2 in D major, Op.73
[5] Tragic Overture, Op.81
[6] Academic Festival Overture, Op.80
CD3
[1]-[4] Symphony No.3 in F major, Op.90
[5]-[8] Symphony No.4 in E minor, Op.98
Исполнители:
Helsingborg Symphony Orchestra
Andrew Manze

Лог создания рипа: CD1

Exact Audio Copy V1.1 from 23. June 2015
EAC extraction logfile from 21. November 2015, 17:14
Helsingborg Symphony Orchestra, Andrew Manze / Brahms - Complete Symphonies - CD1
Used drive : HL-DT-STDVDRAM GU70N Adapter: 1 ID: 0
Read mode : SecureUtilize accurate stream : YesDefeat audio cache : YesMake use of C2 pointers : No
Read offset correction : 48Overread into Lead-In and Lead-Out : NoFill up missing offset samples with silence : YesDelete leading and trailing silent blocks : NoNull samples used in CRC calculations : YesUsed interface : Native Win32 interface for Win NT & 2000
Used output format : User Defined EncoderSelected bitrate : 128 kBit/sQuality : HighAdd ID3 tag : NoCommand line compressor : C:\Program Files (x86)\Exact Audio Copy\Flac\flac.exeAdditional command line options : -V -8 -T "Date=%year%" -T "Genre=%genre%" %source%
TOC of the extracted CD
Track | Start | Length | Start sector | End sector --------------------------------------------------------- 1 | 0:00.00 | 15:00.43 | 0 | 67542 2 | 15:00.43 | 9:30.13 | 67543 | 110305 3 | 24:30.56 | 4:43.28 | 110306 | 131558 4 | 29:14.09 | 16:17.11 | 131559 | 204844 5 | 45:31.20 | 2:00.40 | 204845 | 213884 6 | 47:31.60 | 1:16.17 | 213885 | 219601 7 | 48:48.02 | 1:00.64 | 219602 | 224165 8 | 49:48.66 | 1:52.56 | 224166 | 232621 9 | 51:41.47 | 2:20.74 | 232622 | 243195 10 | 54:02.46 | 1:02.31 | 243196 | 247876 11 | 55:05.02 | 1:12.19 | 247877 | 253295 12 | 56:17.21 | 3:12.03 | 253296 | 267698 13 | 59:29.24 | 1:16.74 | 267699 | 273472 14 | 60:46.23 | 3:48.50 | 273473 | 290622
Range status and errors
Selected range
Filename C:\temp\Brahms - Complete Symphonies - Helsingborg SO, Manze\CD1\Brahms - Complete Symphonies - CD1.wav
Peak level 92.6 % Extraction speed 2.2 X Range quality 100.0 % Test CRC E7AF2A14 Copy CRC E7AF2A14 Copy OK
No errors occurred
AccurateRip summary
Track 1 accurately ripped (confidence 8) [A00FF645] (AR v2)Track 2 accurately ripped (confidence 8) [39CD1963] (AR v2)Track 3 accurately ripped (confidence 8) [1A0AC55E] (AR v2)Track 4 accurately ripped (confidence 8) [2D0A452C] (AR v2)Track 5 accurately ripped (confidence 7) [FE936156] (AR v2)Track 6 accurately ripped (confidence 7) [59361A0C] (AR v2)Track 7 accurately ripped (confidence 7) [DDC8D337] (AR v2)Track 8 accurately ripped (confidence 7) [2784ADC3] (AR v2)Track 9 accurately ripped (confidence 7) [34FCB780] (AR v2)Track 10 accurately ripped (confidence 7) [A7F656BA] (AR v2)Track 11 accurately ripped (confidence 7) [50B63C79] (AR v2)Track 12 accurately ripped (confidence 7) [9B96F1E0] (AR v2)Track 13 accurately ripped (confidence 7) [59CD05CF] (AR v2)Track 14 accurately ripped (confidence 7) [CFEC9BC7] (AR v2)
All tracks accurately ripped
End of status report
==== Log checksum 500CA8F34AC56C48CF55E2CEB996466F66A3E2E58733C0E19C4EA63F60191F51 ====

Лог создания рипа: CD2

Exact Audio Copy V1.1 from 23. June 2015
EAC extraction logfile from 21. November 2015, 18:21
Helsingborg Symphony Orchestra, Andrew Manze / Brahms - Complete Symphonies - CD2
Used drive : HL-DT-STDVDRAM GU70N Adapter: 1 ID: 0
Read mode : SecureUtilize accurate stream : YesDefeat audio cache : YesMake use of C2 pointers : No
Read offset correction : 48Overread into Lead-In and Lead-Out : NoFill up missing offset samples with silence : YesDelete leading and trailing silent blocks : NoNull samples used in CRC calculations : YesUsed interface : Native Win32 interface for Win NT & 2000
Used output format : User Defined EncoderSelected bitrate : 128 kBit/sQuality : HighAdd ID3 tag : NoCommand line compressor : C:\Program Files (x86)\Exact Audio Copy\Flac\flac.exeAdditional command line options : -V -8 -T "Date=%year%" -T "Genre=%genre%" %source%
TOC of the extracted CD
Track | Start | Length | Start sector | End sector --------------------------------------------------------- 1 | 0:00.00 | 19:49.68 | 0 | 89242 2 | 19:49.68 | 11:04.28 | 89243 | 139070 3 | 30:54.21 | 5:25.46 | 139071 | 163491 4 | 36:19.67 | 8:50.24 | 163492 | 203265 5 | 45:10.16 | 13:35.42 | 203266 | 264432 6 | 58:45.58 | 10:16.46 | 264433 | 310678
Range status and errors
Selected range
Filename C:\temp\Brahms - Complete Symphonies - Helsingborg SO, Manze\CD2\Brahms - Complete Symphonies - CD2.wav
Peak level 94.7 % Extraction speed 2.2 X Range quality 99.9 % Test CRC 63CE8EB9 Copy CRC 63CE8EB9 Copy OK
No errors occurred
AccurateRip summary
Track 1 accurately ripped (confidence 7) [CBE492E0] (AR v2)Track 2 accurately ripped (confidence 7) [C35F04E6] (AR v2)Track 3 accurately ripped (confidence 7) [D5CFCF4F] (AR v2)Track 4 accurately ripped (confidence 7) [95D5C0AF] (AR v2)Track 5 accurately ripped (confidence 7) [D04966BA] (AR v2)Track 6 accurately ripped (confidence 7) [C1B878CE] (AR v2)
All tracks accurately ripped
End of status report
==== Log checksum 15FBBBB57C839B6A70246178190086F3882E0EA70E0BB97164CCC816DDFD2CE2 ====

Лог создания рипа: CD3

Exact Audio Copy V1.1 from 23. June 2015
EAC extraction logfile from 21. November 2015, 19:31
Helsingborg Symphony Orchestra, Andrew Manze / Brahms - Complete Symphonies - CD3
Used drive : HL-DT-STDVDRAM GU70N Adapter: 1 ID: 0
Read mode : SecureUtilize accurate stream : YesDefeat audio cache : YesMake use of C2 pointers : No
Read offset correction : 48Overread into Lead-In and Lead-Out : NoFill up missing offset samples with silence : YesDelete leading and trailing silent blocks : NoNull samples used in CRC calculations : YesUsed interface : Native Win32 interface for Win NT & 2000
Used output format : User Defined EncoderSelected bitrate : 128 kBit/sQuality : HighAdd ID3 tag : NoCommand line compressor : C:\Program Files (x86)\Exact Audio Copy\Flac\flac.exeAdditional command line options : -V -8 -T "Date=%year%" -T "Genre=%genre%" %source%
TOC of the extracted CD
Track | Start | Length | Start sector | End sector --------------------------------------------------------- 1 | 0:00.00 | 12:23.16 | 0 | 55740 2 | 12:23.16 | 10:18.43 | 55741 | 102133 3 | 22:41.59 | 5:29.57 | 102134 | 126865 4 | 28:11.41 | 8:25.00 | 126866 | 164740 5 | 36:36.41 | 12:19.17 | 164741 | 220182 6 | 48:55.58 | 11:53.48 | 220183 | 273705 7 | 60:49.31 | 6:07.23 | 273706 | 301253 8 | 66:56.54 | 10:20.58 | 301254 | 347811
Range status and errors
Selected range
Filename C:\temp\Brahms - Complete Symphonies - Helsingborg SO, Manze\CD3\Brahms - Complete Symphonies - CD3.wav
Peak level 93.4 % Extraction speed 2.3 X Range quality 100.0 % Test CRC F95E201E Copy CRC F95E201E Copy OK
No errors occurred
AccurateRip summary
Track 1 accurately ripped (confidence 6) [AECD650A] (AR v2)Track 2 accurately ripped (confidence 6) [29B61103] (AR v2)Track 3 accurately ripped (confidence 6) [58EB31FB] (AR v2)Track 4 accurately ripped (confidence 6) [DA4E9F2F] (AR v2)Track 5 accurately ripped (confidence 6) [A3251287] (AR v2)Track 6 accurately ripped (confidence 6) [BAE93495] (AR v2)Track 7 accurately ripped (confidence 6) [F7A175A0] (AR v2)Track 8 accurately ripped (confidence 6) [2070E06A] (AR v2)
All tracks accurately ripped
End of status report
==== Log checksum B74FB0087338A7BB3280617CBCFBCC0C5171ADAB5E143CB96EF3A6D7E5FBCB99 ====



Показать сообщения:    

Текущее время: 08-Дек 03:06

Часовой пояс: UTC + 3


Вы не можете начинать темы
Вы не можете отвечать на сообщения
Вы не можете редактировать свои сообщения
Вы не можете удалять свои сообщения
Вы не можете голосовать в опросах
Вы не можете прикреплять файлы к сообщениям
Вы не можете скачивать файлы