(classic) The Art of Bernard Haitink (10 cd's) - 2009, FLAC (tracks+.cue), lossless


Статистика раздачи [Обновить пиров]
Размер:  3.26 GB   |    Зарегистрирован:  11 месяцев   |    Скачан:  1 раз

Полного источника не было: 18 часов

 
   
 
 
 

[Цитировать]

The Art of Bernard Haitink (10 cd's)
Жанр: classic
Год выпуска диска: 2009
Производитель диска: Decca
Аудио кодек: FLAC
Тип рипа: tracks+.cue
Битрейт аудио: lossless
Продолжительность: 10 cd
Трэклист:
Трэклист

Трэклист

CD-1 Ludwig van Beethoven
Vioolconcert in D, Op., 61"
1 - I Allegro ma non troppo 24'I6
2 - II Larghetto 10'19"
3 - III Rondo-Allegro 10'40"
Herman Krebbers viool
Concertgebouworkest o.l.v. Bernard Haitink Opname: 9december1974
Symfonie №. 5 in c. Op. 67
4 - I Allegro con brio 7'07"
5 - II Andante con moto 9'58"
6 - III Allegro 5'08"
7 - IV Allegro 8'58"
Concertgebouworkest o.l.v. Bernard Haitink Opname: 14-15,21 april 1986
CD-2 Johannes Brahms
Concert vo or piano en orkest №. 1 in d. Op. 15
1 - I Maestoso - Poco piu moderato 22'02"
2 - II Adagio 14'07"
3 - III Rondo: Allegro no troppo 11'30"
Vladimir Ashkenazy piano
Concertgebouworkest o.l.v. Bernard Haitink Opname: 21,22 mei 1981
Serenade in A, Op. 16
4 - I Allegro moderato 7'41"
5 - II Scherzo (Vivace) 2'41"
6 - III Adagio non troppo 7'26"
7 - IV Quasi menuetto - Trio 5'23"
8 - V Rondo (Allegro) 5'55"
Concertgebouworkest o.l.v. Bernard Haitink Opname: 20 december 1978
CD-3 Antonin Dvorak
Symfonie Nr. 7 in d. Op. 70
1 - I Allegro maestoso 10'37"
2 - II Poco adagio 9'21"
3 - III Scherzo: vivace 6'46"
4 - IV Finale: Allegro 8'52"
Concertgebouworkest o.l.v. Bernard Haitink Opname: 16-17 September 1959
8 Slavische Dasnseo, Op. 46
5 - №.1 in С (Presto) 4'09"
6 - №.2 in e (Allegretto scherzando) 4'45"
7 - №.3 in As (Poco allegro) 4'29"
8 - №.4 in F (Tempo di minuetto) 6'10"
9 - №.5 in A (Allegro vivace) 3'32"
10 - №.6 in D (Allegretto scherzando) 4'33"
11 - №.7 in с (Allegro assai) 3'11"
12 - №.8 in g (Presto) 4'17"
Concertgebouworkest o.l.v. Bernard Haitink
Opname: 16-17 September 1959 - Nrs. 1,3,7,8; 4-6 juni 1963 - Nrs. 2,4,6; 14 mei 1966 - Nr. 5
CD-4 Richard Wagner, Anton Bruckner
Richard Wagner
1 - Prelude em Loebestod (Tristan und Isolde) 16'39"
Concertgebouworkest o.l.v. Bernard Haitink Opname: 2-4 december 1974
Anton Bruckner Symfonie Nr. 3 in d (versie 1877)
2 - I Gemassigt, mehr bewegt, misterioso 21'21"
3 - II Andante. Bewegt, feierlich, quasi Adagio 16'58"
4 - III Scherzo. Ziemlich schnell 7'30"
5 - IV Finale: Allegro 15'40"
Wiener Philharmoniker o.l.v. Bernard Haitink Opname: december 1988
CD-5 Gustav Mahler, Richard Strauss
Gustav Mahler Symfonie Nr. 1 in D
1 - I Langsam. Schleppend 13'23"
2 - II Kraftig bewegt 7'45"
3 - III Feierlich und gemessen, ohne zu schleppen. 10'31"
4 - IV Sturmisch bewegt 20'04"
Concertgebouworkest o.l.v. Bernard Haitink Opname: 18-19 mei 1972
Richard Strauss
5 - Tod und Verklarung Op. 24 26'50" Symphonische Dichtung fur grosses Orchester
Concertgebouworkest o.l.v. Bernard Haitink Opname: 7-8 december 1981
CD-6 Dmitri Shostakovich
Symfooie №. 5 in d, Op. 47
1 - I Moderato 18'03"
2 - II Allegretto 5'29"
3 - III Largo 15'41"
4 - IV Allegro non troppo 10'34"
Concertgebouworkest o.l.v. Bernard Haitink Opname: 22-23 mei 1981
Synmfomiie №. 9 in Es, Op. 70
5 - I Allegro 4'56"
8 - II Moderato 7'44"
7 - III Presto 2'38"
8 - IV Largo 3'56"
9 - V Allegretto 6'37"
London Philharmonic Orchestra o.l.v. Bernard Haitink Opname: januari 1980
CD-7 Claude Debussy
1 - Prelude a l'apres-midi d'un faune 1V07"
Concertgebouworkest o.l.v. Bernard Haitink Opname: 20-22 december 1976
Trois Nocturoes
2 - I Nuages 7'02"
3 - II Fetes 6'12"
4 - III Sirenes 10'19"
Concertgebouworkest o.l.v. Bernard Haitink Opname: 4-5 mei 1979
La Mer
5 - I De I'aube a midi sur la mer 8'37"
6 - II Jeux de vagues 6'25"
7 - III Dialogue du vent et de la mer 7'54"
8 - Premiere Rhapsodie 8'19"
George Pieterson klarinet
Concertgebouworkest o.l.v. Bernard Haitink Opname: 20-22 december 1976
Danses pour harpe et orchestre
9 - Danse sacree 4'37"
10 - Danse profane 4'31"
Vera Badings, harp
Concertgebouworkest o.l.v. Bernard Haitink Opname: 19-20 december 1977
CD-8 Maurice Ravel
Daphnis & Chloe Suite Nr. 1
I - I Nocturne 4'39'
2 - II Interlude 6'36'
3 - III Danse guerriere 15'53'
Concertgebouworkest o.l.v. Bernard Haitink Opname: 7-9 September 1971
Daphnis & Chloe Suite Nr. 2
4 - I Lever du jour 5'52'
5 - II Pantomime 6'39'
6 - III Danse generale 3'25'
Concertgebouworkest o.l.v. Bernard Haitink Opname: 7-9 September 1971
Rapsodie Espagnole
7 - I Prelude a la nuit 4'15'
8 - II Malaguena 2'07'
9 - III Habanera 2'35'
10 - IV Feria 6'24'
Boston Symphony Orchestra o.l.v. Bernard Haitink Opname: november 1995
Ma mer l'oie
11 - Prelude 3'18"
12 - Danse du rouet et scene — Interlude 3'38"
13 - Pavane de la Belle au bois dormant 2'26"
14 - Entretiens de la Belle et de la Bete 5'02"
15 - Petit Poucet 4'54"
16 - Laideronnette, imperatrice des pagodes 4'59"
17 - Apoth6ose: le jardin feerique 3'46"
Boston Symphony Orchestra o.l.v. Bernard Haitink Opname: november 1995
CD-9" Bela Bartok, Zoltan Kodaiy
Bela Bartok Concert voor orkest, Sz. 116
1 - I Introduzione Andante non troppo — Allegro vivace 9'20
2 - II Giuocco delle coppie Allegretto scherzando 6'36
3 - III Elegia Andante non troppo 6'48
4 - IV Intermezzo interotto Allegretto 4"I2 B
5 - V Finale Pesante — Presto 9'26
Concertgebouworkest o.l.v. Bernard Haitink Opname: 21-23 September 1960
Danssuite, Sz. 77
6 - I Moderato 3'27 7
7 - II Allegro molto 2'12
8 - III Allegro vivace 3'00
9 - IV Molto tranquillo 2'28
10 - V Comodo 1'30
11 - VI Finale (Allegro) 4'07
Concertgebouworkest o.l.v. Bernard Haitink Opname: 21-23 September 1960
Zoltan Kodaiy Hary Janos Suite
12 - Prelude. The fairy tale begins 3'46"
13 - Viennese musical clock 1 '58"
14 - Song 5'16"
15 - The battle and defeat of Napoleon 4'01"
16 - Intermezzo 4'42"
17 - Entrance of the emperor and his court 2'48"
Concertgebouworkest o.l.v. Bernard Haitink Opname: 15 September 1969
CD-10 Igor Stravinsky
1 - Scherzo a la russe 3'38"
Berliner Philharmoniker o.l.v. Bernard Haitink Opname: oktober 1989
Petrouchka
Scene 1
2 - The Shrovetide Fair-The Crowds - The Conjuring-trick 7'03"
3 - Russian Dance 2'45"
Scene 2
4 - Petrouchka's Room 4'29"
Scene 3
5 - The Moor's Room - Dance of the Ballerina 3'40"
6 - Waltz (The Ballerina and the Moor) 3'15"
Scene 4
7 - The Shrovetide Fair - The Wet-nurses -
The Peasant and the Bear-The Merchant and the Gipsies -
The Coachmen and the Grooms - The Masqueraders -
Petrouchka's Death 13'25"
Berliner Philharmoniker o.l.v. Bernard Haitink Opname: december 1988
Le Sacre du printemps
Premiere partie - L'Adoration de la terre
8 - Introduction 3'35"
9 - Les augures printaniers - Danses des adolescents 3'11"
10 - Jeu du rapt 1'18"
11 - Rondes printanieres 3'28"
12 - Jeux des cites rivales 1 '49"
13 - Cortege du sage - Le sage 0'42"
14 - Danse de la terre 1 '30"
Deuxieme partie - Le Sacrifice
15 - Introduction 4'26"
16 - Cercles mysterieux des adolescentes 3'09"
17 - Glorification d'elue 1 '36"
18 - Evocation des ancetres 0'53"
19 - Action ritueile des ancetres 3'36"
20 - Danse sacrale: L'elue 4'53"
London Philharmonic Orchestra o.l.v. Bernard Haitink Opname: 1 februari 1973

Лог

CD-1
Exact Audio Copy V0.99 prebeta 5 from 4. May 2009
EAC extraction logfile from 20. June 2009, 16:23
Various / The Art of Bernard Haitink (disc 1)
Used drive : TSSTcorpCDDVDW SH-S203D Adapter: 2 ID: 2
Read mode : Secure
Utilize accurate stream : Yes
Defeat audio cache : Yes
Make use of C2 pointers : No
Read offset correction : 6
Overread into Lead-In and Lead-Out : No
Fill up missing offset samples with silence : Yes
Delete leading and trailing silent blocks : No
Null samples used in CRC calculations : Yes
Used interface : Native Win32 interface for Win NT & 2000
Gap handling : Appended to previous track
Used output format : Internal WAV Routines
Sample format : 44.100 Hz; 16 Bit; Stereo
TOC of the extracted CD
Track | Start | Length | Start sector | End sector
---------------------------------------------------------
1 | 0:00.00 | 24:17.44 | 0 | 109318
2 | 24:17.44 | 10:19.10 | 109319 | 155753
3 | 34:36.54 | 10:41.73 | 155754 | 203901
4 | 45:18.52 | 7:09.39 | 203902 | 236115
5 | 52:28.16 | 10:01.66 | 236116 | 281256
6 | 62:30.07 | 5:07.49 | 281257 | 304330
7 | 67:37.56 | 8:58.25 | 304331 | 344705
Track 1
Filename E:\post\Various\2009 The Art of Bernard Haitink (disc 1)\01 - Ludwig van Beethoven - Violin Concerto in D Major, Op. 61- I. Allegro ma non troppo.wav
Pre-gap length 0:00:02.00
Peak level 94.3 %
Track quality 100.0 %
Test CRC 00E19A97
Copy CRC 00E19A97
Track not present in AccurateRip database
Copy OK
Track 2
Filename E:\post\Various\2009 The Art of Bernard Haitink (disc 1)\02 - Ludwig van Beethoven - Violin Concerto in D Major, Op. 61- II. Larghetto.wav
Peak level 59.3 %
Track quality 100.0 %
Test CRC 83FA1385
Copy CRC 83FA1385
Track not present in AccurateRip database
Copy OK
Track 3
Filename E:\post\Various\2009 The Art of Bernard Haitink (disc 1)\03 - Ludwig van Beethoven - Violin Concerto in D Major, Op. 61- III. Rondo - Allegro.wav
Peak level 94.4 %
Track quality 100.0 %
Test CRC DC846028
Copy CRC DC846028
Track not present in AccurateRip database
Copy OK
Track 4
Filename E:\post\Various\2009 The Art of Bernard Haitink (disc 1)\04 - Ludwig van Beethoven - Symphony No. 5 in C Minor, Op. 67- I. Allegro con brio.wav
Pre-gap length 0:00:04.58
Peak level 100.0 %
Track quality 100.0 %
Test CRC 23F7ED89
Copy CRC 23F7ED89
Track not present in AccurateRip database
Copy OK
Track 5
Filename E:\post\Various\2009 The Art of Bernard Haitink (disc 1)\05 - Ludwig van Beethoven - Symphony No. 5 in C Minor, Op. 67- II. Andante con moto.wav
Pre-gap length 0:00:04.46
Peak level 100.0 %
Track quality 100.0 %
Test CRC 17FC7627
Copy CRC 17FC7627
Track not present in AccurateRip database
Copy OK
Track 6
Filename E:\post\Various\2009 The Art of Bernard Haitink (disc 1)\06 - Ludwig van Beethoven - Symphony No. 5 in C Minor, Op. 67- III. Allegro.wav
Pre-gap length 0:00:04.72
Peak level 100.0 %
Track quality 100.0 %
Test CRC D8FEEDCE
Copy CRC D8FEEDCE
Track not present in AccurateRip database
Copy OK
Track 7
Filename E:\post\Various\2009 The Art of Bernard Haitink (disc 1)\07 - Ludwig van Beethoven - Symphony No. 5 in C Minor, Op. 67- IV. Allegro.wav
Peak level 100.0 %
Track quality 100.0 %
Test CRC 10B4522C
Copy CRC 10B4522C
Track not present in AccurateRip database
Copy OK
None of the tracks are present in the AccurateRip database
No errors occurred
End of status report
CD-2
Exact Audio Copy V0.99 prebeta 5 from 4. May 2009
EAC extraction logfile from 20. June 2009, 14:55
Various / The Art of Bernard Haitink (disc 2)
Used drive : TSSTcorpCDDVDW SH-S203D Adapter: 2 ID: 2
Read mode : Secure
Utilize accurate stream : Yes
Defeat audio cache : Yes
Make use of C2 pointers : No
Read offset correction : 6
Overread into Lead-In and Lead-Out : No
Fill up missing offset samples with silence : Yes
Delete leading and trailing silent blocks : No
Null samples used in CRC calculations : Yes
Used interface : Native Win32 interface for Win NT & 2000
Gap handling : Appended to previous track
Used output format : Internal WAV Routines
Sample format : 44.100 Hz; 16 Bit; Stereo
TOC of the extracted CD
Track | Start | Length | Start sector | End sector
---------------------------------------------------------
1 | 0:00.00 | 22:05.54 | 0 | 99428
2 | 22:05.54 | 14:06.44 | 99429 | 162922
3 | 36:12.23 | 12:41.35 | 162923 | 220032
4 | 48:53.58 | 7:45.06 | 220033 | 254913
5 | 56:38.64 | 2:45.58 | 254914 | 267346
6 | 59:24.47 | 7:28.52 | 267347 | 300998
7 | 66:53.24 | 5:27.60 | 300999 | 325583
8 | 72:21.09 | 6:00.45 | 325584 | 352628
Track 1
Filename E:\post\Various\2009 The Art of Bernard Haitink (disc 2)\01 - Johannes Brahms - Piano Concerto No. 1 in D Minor, Op. 15- I. Maestoso - Poco piщ moderato.wav
Pre-gap length 0:00:02.00
Peak level 100.0 %
Track quality 100.0 %
Test CRC 0842BDA1
Copy CRC 0842BDA1
Track not present in AccurateRip database
Copy OK
Track 2
Filename E:\post\Various\2009 The Art of Bernard Haitink (disc 2)\02 - Johannes Brahms - Piano Concerto No. 1 in D Minor, Op. 15- II. Adagio.wav
Pre-gap length 0:00:03.33
Peak level 100.0 %
Track quality 100.0 %
Test CRC C48F3133
Copy CRC C48F3133
Track not present in AccurateRip database
Copy OK
Track 3
Filename E:\post\Various\2009 The Art of Bernard Haitink (disc 2)\03 - Johannes Brahms - Piano Concerto No. 1 in D Minor, Op. 15- III. Allegro non troppo.wav
Peak level 100.0 %
Track quality 100.0 %
Test CRC 6AACA6D7
Copy CRC 6AACA6D7
Track not present in AccurateRip database
Copy OK
Track 4
Filename E:\post\Various\2009 The Art of Bernard Haitink (disc 2)\04 - Johannes Brahms - Serenade No. 2 in A major, Op. 16- I. Allegro moderato.wav
Pre-gap length 0:00:05.53
Peak level 82.4 %
Track quality 100.0 %
Test CRC E540305E
Copy CRC E540305E
Track not present in AccurateRip database
Copy OK
Track 5
Filename E:\post\Various\2009 The Art of Bernard Haitink (disc 2)\05 - Johannes Brahms - Serenade No. 2 in A major, Op. 16- II. Scherzo (Vivace).wav
Pre-gap length 0:00:02.28
Peak level 99.5 %
Track quality 100.0 %
Test CRC 1EB82C17
Copy CRC 1EB82C17
Track not present in AccurateRip database
Copy OK
Track 6
Filename E:\post\Various\2009 The Art of Bernard Haitink (disc 2)\06 - Johannes Brahms - Serenade No. 2 in A major, Op. 16- III. Adaigio non troppo.wav
Pre-gap length 0:00:02.36
Peak level 87.6 %
Track quality 100.0 %
Test CRC E2DDEA64
Copy CRC E2DDEA64
Track not present in AccurateRip database
Copy OK
Track 7
Filename E:\post\Various\2009 The Art of Bernard Haitink (disc 2)\07 - Johannes Brahms - Serenade No. 2 in A major, Op. 16- Quasi menuetto - Trio.wav
Peak level 64.9 %
Track quality 100.0 %
Test CRC 773C1CCE
Copy CRC 773C1CCE
Track not present in AccurateRip database
Copy OK
Track 8
Filename E:\post\Various\2009 The Art of Bernard Haitink (disc 2)\08 - Johannes Brahms - Serenade No. 2 in A major, Op. 16- Rondo (Allegro).wav
Pre-gap length 0:00:02.01
Peak level 100.0 %
Track quality 100.0 %
Test CRC 87EF728F
Copy CRC 87EF728F
Track not present in AccurateRip database
Copy OK
None of the tracks are present in the AccurateRip database
No errors occurred
End of status report
CD-3
Exact Audio Copy V0.99 prebeta 5 from 4. May 2009
EAC extraction logfile from 20. June 2009, 20:16
Various / The Art of Bernard Haitink (disc 3)
Used drive : TSSTcorpCDDVDW SH-S203D Adapter: 2 ID: 2
Read mode : Secure
Utilize accurate stream : Yes
Defeat audio cache : Yes
Make use of C2 pointers : No
Read offset correction : 6
Overread into Lead-In and Lead-Out : No
Fill up missing offset samples with silence : Yes
Delete leading and trailing silent blocks : No
Null samples used in CRC calculations : Yes
Used interface : Native Win32 interface for Win NT & 2000
Gap handling : Appended to previous track
Used output format : Internal WAV Routines
Sample format : 44.100 Hz; 16 Bit; Stereo
TOC of the extracted CD
Track | Start | Length | Start sector | End sector
---------------------------------------------------------
1 | 0:00.00 | 10:43.13 | 0 | 48237
2 | 10:43.13 | 9:24.72 | 48238 | 90609
3 | 20:08.10 | 6:47.65 | 90610 | 121199
4 | 26:56.00 | 8:59.19 | 121200 | 161643
5 | 35:55.19 | 4:12.09 | 161644 | 180552
6 | 40:07.28 | 4:49.59 | 180553 | 202286
7 | 44:57.12 | 4:33.04 | 202287 | 222765
8 | 49:30.16 | 6:14.24 | 222766 | 250839
9 | 55:44.40 | 3:35.67 | 250840 | 267031
10 | 59:20.32 | 4:37.48 | 267032 | 287854
11 | 63:58.05 | 3:13.02 | 287855 | 302331
12 | 67:11.07 | 4:19.68 | 302332 | 321824
Track 1
Filename E:\post\Various\2009 The Art of Bernard Haitink (disc 3)\01 - Antonнn Dvorбk - Symphony No. 7 in D Minor, Op. 70- I. Allegro maestoso.wav
Pre-gap length 0:00:02.00
Peak level 88.9 %
Track quality 99.9 %
Test CRC 4A445B66
Copy CRC 4A445B66
Track not present in AccurateRip database
Copy OK
Track 2
Filename E:\post\Various\2009 The Art of Bernard Haitink (disc 3)\02 - Antonнn Dvorбk - Symphony No. 7 in D Minor, Op. 70- II. Poco adagio.wav
Pre-gap length 0:00:04.61
Peak level 85.4 %
Track quality 100.0 %
Test CRC EAB5078A
Copy CRC EAB5078A
Track not present in AccurateRip database
Copy OK
Track 3
Filename E:\post\Various\2009 The Art of Bernard Haitink (disc 3)\03 - Antonнn Dvorбk - Symphony No. 7 in D Minor, Op. 70- III. Scherzo- vivace.wav
Pre-gap length 0:00:04.04
Peak level 89.1 %
Track quality 100.0 %
Test CRC 757C5705
Copy CRC 757C5705
Track not present in AccurateRip database
Copy OK
Track 4
Filename E:\post\Various\2009 The Art of Bernard Haitink (disc 3)\04 - Antonнn Dvorбk - Symphony No. 7 in D Minor, Op. 70- IV. Finale- allegro.wav
Peak level 89.1 %
Track quality 99.9 %
Test CRC 8EFAE9DA
Copy CRC 8EFAE9DA
Track not present in AccurateRip database
Copy OK
Track 5
Filename E:\post\Various\2009 The Art of Bernard Haitink (disc 3)\05 - Antonнn Dvorбk - Slavonic Dances, Op. 46 No. 1 in C Major (Presto).wav
Pre-gap length 0:00:05.11
Peak level 87.5 %
Track quality 100.0 %
Test CRC 033805EB
Copy CRC 033805EB
Track not present in AccurateRip database
Copy OK
Track 6
Filename E:\post\Various\2009 The Art of Bernard Haitink (disc 3)\06 - Antonнn Dvorбk - Slavonic Dances, Op. 46 No. 2 in E Minor (Allegretto scherzando).wav
Pre-gap length 0:00:02.39
Peak level 93.8 %
Track quality 100.0 %
Test CRC 1CD17E60
Copy CRC 1CD17E60
Track not present in AccurateRip database
Copy OK
Track 7
Filename E:\post\Various\2009 The Art of Bernard Haitink (disc 3)\07 - Antonнn Dvorбk - Slavonic Dances, Op. 46 No. 3 in A-flat Major (Poco allegro).wav
Pre-gap length 0:00:03.29
Peak level 81.9 %
Track quality 100.0 %
Test CRC 77FADCD9
Copy CRC 77FADCD9
Track not present in AccurateRip database
Copy OK
Track 8
Filename E:\post\Various\2009 The Art of Bernard Haitink (disc 3)\08 - Antonнn Dvorбk - Slavonic Dances, Op. 46 No. 4 in F Major (Tempo di minuetto).wav
Pre-gap length 0:00:03.23
Peak level 89.1 %
Track quality 100.0 %
Test CRC 9ABBDE18
Copy CRC 9ABBDE18
Track not present in AccurateRip database
Copy OK
Track 9
Filename E:\post\Various\2009 The Art of Bernard Haitink (disc 3)\09 - Antonнn Dvorбk - Slavonic Dances, Op. 46 No. 5 in A Major (Allegro vivace).wav
Pre-gap length 0:00:03.07
Peak level 94.4 %
Track quality 100.0 %
Test CRC D5112847
Copy CRC D5112847
Track not present in AccurateRip database
Copy OK
Track 10
Filename E:\post\Various\2009 The Art of Bernard Haitink (disc 3)\10 - Antonнn Dvorбk - Slavonic Dances, Op. 46 No. 6 in D Major (Allegrettio scherzando).wav
Pre-gap length 0:00:02.69
Peak level 93.0 %
Track quality 100.0 %
Test CRC 648FCB22
Copy CRC 648FCB22
Track not present in AccurateRip database
Copy OK
Track 11
Filename E:\post\Various\2009 The Art of Bernard Haitink (disc 3)\11 - Antonнn Dvorбk - Slavonic Dances, Op. 46 No. 7 in C Minor (Allegro assai).wav
Pre-gap length 0:00:03.57
Peak level 92.6 %
Track quality 100.0 %
Test CRC 1CBAFFB0
Copy CRC 1CBAFFB0
Track not present in AccurateRip database
Copy OK
Track 12
Filename E:\post\Various\2009 The Art of Bernard Haitink (disc 3)\12 - Antonнn Dvorбk - Slavonic Dances, Op. 46 No. 8 in G Minor (Presto).wav
Pre-gap length 0:00:02.46
Peak level 86.7 %
Track quality 100.0 %
Test CRC A8AF5CE7
Copy CRC A8AF5CE7
Track not present in AccurateRip database
Copy OK
None of the tracks are present in the AccurateRip database
No errors occurred
End of status report
CD-4
Exact Audio Copy V0.99 prebeta 5 from 4. May 2009
EAC extraction logfile from 20. June 2009, 20:49
Various / The Art of Bernard Haitink (disc 4)
Used drive : TSSTcorpCDDVDW SH-S203D Adapter: 2 ID: 2
Read mode : Secure
Utilize accurate stream : Yes
Defeat audio cache : Yes
Make use of C2 pointers : No
Read offset correction : 6
Overread into Lead-In and Lead-Out : No
Fill up missing offset samples with silence : Yes
Delete leading and trailing silent blocks : No
Null samples used in CRC calculations : Yes
Used interface : Native Win32 interface for Win NT & 2000
Gap handling : Appended to previous track
Used output format : Internal WAV Routines
Sample format : 44.100 Hz; 16 Bit; Stereo
TOC of the extracted CD
Track | Start | Length | Start sector | End sector
---------------------------------------------------------
1 | 0:00.00 | 16:46.73 | 0 | 75522
2 | 16:46.73 | 21:26.68 | 75523 | 172040
3 | 38:13.66 | 17:03.11 | 172041 | 248776
4 | 55:17.02 | 7:30.33 | 248777 | 282559
5 | 62:47.35 | 15:37.52 | 282560 | 352886
Track 1
Filename E:\post\Various\2009 The Art of Bernard Haitink (disc 4)\01 - Richard Wagner - Prelude & Liebestod.wav
Pre-gap length 0:00:02.00
Peak level 90.8 %
Track quality 100.0 %
Test CRC CF3E5D96
Copy CRC CF3E5D96
Track not present in AccurateRip database
Copy OK
Track 2
Filename E:\post\Various\2009 The Art of Bernard Haitink (disc 4)\02 - Anton Bruckner - Symphony No. 3 in D minor (1877 version)- I. GemдЯigt, mehr bewegt, misterioso.wav
Pre-gap length 0:00:05.55
Peak level 99.9 %
Track quality 100.0 %
Test CRC 791BAAA8
Copy CRC 791BAAA8
Track not present in AccurateRip database
Copy OK
Track 3
Filename E:\post\Various\2009 The Art of Bernard Haitink (disc 4)\03 - Anton Bruckner - Symphony No. 3 in D minor (1877 version)- II. Andante. Bewegt, feierlich, quasi adagio.wav
Pre-gap length 0:00:07.25
Peak level 99.9 %
Track quality 100.0 %
Test CRC 49E53A33
Copy CRC 49E53A33
Track not present in AccurateRip database
Copy OK
Track 4
Filename E:\post\Various\2009 The Art of Bernard Haitink (disc 4)\04 - Anton Bruckner - Symphony No. 3 in D minor (1877 version)- III. Scherzo. Ziemlich schnell.wav
Pre-gap length 0:00:07.63
Peak level 94.3 %
Track quality 100.0 %
Test CRC 734E5E0D
Copy CRC 734E5E0D
Track not present in AccurateRip database
Copy OK
Track 5
Filename E:\post\Various\2009 The Art of Bernard Haitink (disc 4)\05 - Anton Bruckner - Symphony No. 3 in D minor (1877 version)- IV. Finale. Allegro.wav
Pre-gap length 0:00:00.03
Peak level 99.9 %
Track quality 100.0 %
Test CRC 3FE8632B
Copy CRC 3FE8632B
Track not present in AccurateRip database
Copy OK
None of the tracks are present in the AccurateRip database
No errors occurred
End of status report
CD-5
Exact Audio Copy V0.99 prebeta 5 from 4. May 2009
EAC extraction logfile from 20. June 2009, 21:18
Various / The Art of Bernard Haitink (disc 5)
Used drive : TSSTcorpCDDVDW SH-S203D Adapter: 2 ID: 2
Read mode : Secure
Utilize accurate stream : Yes
Defeat audio cache : Yes
Make use of C2 pointers : No
Read offset correction : 6
Overread into Lead-In and Lead-Out : No
Fill up missing offset samples with silence : Yes
Delete leading and trailing silent blocks : No
Null samples used in CRC calculations : Yes
Used interface : Native Win32 interface for Win NT & 2000
Gap handling : Appended to previous track
Used output format : Internal WAV Routines
Sample format : 44.100 Hz; 16 Bit; Stereo
TOC of the extracted CD
Track | Start | Length | Start sector | End sector
---------------------------------------------------------
1 | 0:00.00 | 13:24.50 | 0 | 60349
2 | 13:24.50 | 7:48.50 | 60350 | 95499
3 | 21:13.25 | 10:51.42 | 95500 | 144366
4 | 32:04.67 | 20:08.09 | 144367 | 234975
5 | 52:13.01 | 26:53.24 | 234976 | 355974
Track 1
Filename E:\post\Various\2009 The Art of Bernard Haitink (disc 5)\01 - Gustav Mahler - Symphony No. 1 in D major- I. Langsam. Schleppend.wav
Pre-gap length 0:00:02.00
Peak level 93.7 %
Track quality 100.0 %
Test CRC A81B5F4B
Copy CRC A81B5F4B
Track not present in AccurateRip database
Copy OK
Track 2
Filename E:\post\Various\2009 The Art of Bernard Haitink (disc 5)\02 - Gustav Mahler - Symphony No. 1 in D major- II. Krдftig bewegt.wav
Pre-gap length 0:00:05.04
Peak level 81.3 %
Track quality 100.0 %
Test CRC 8E083C01
Copy CRC 8E083C01
Track not present in AccurateRip database
Copy OK
Track 3
Filename E:\post\Various\2009 The Art of Bernard Haitink (disc 5)\03 - Gustav Mahler - Symphony No. 1 in D major- III. Feierlich und gemessen, ohne zu schleppen.wav
Pre-gap length 0:00:05.27
Peak level 55.0 %
Track quality 100.0 %
Test CRC 56D28A23
Copy CRC 56D28A23
Track not present in AccurateRip database
Copy OK
Track 4
Filename E:\post\Various\2009 The Art of Bernard Haitink (disc 5)\04 - Gustav Mahler - Symphony No. 1 in D major- IV. Stьrmisch bewegt.wav
Peak level 91.9 %
Track quality 100.0 %
Test CRC 3D62232C
Copy CRC 3D62232C
Track not present in AccurateRip database
Copy OK
Track 5
Filename E:\post\Various\2009 The Art of Bernard Haitink (disc 5)\05 - Richard Strauss - Tod und Verklдrung, Op. 24.wav
Pre-gap length 0:00:06.45
Peak level 97.3 %
Track quality 100.0 %
Test CRC D73B01A3
Copy CRC D73B01A3
Track not present in AccurateRip database
Copy OK
None of the tracks are present in the AccurateRip database
No errors occurred
End of status report
CD-6
Exact Audio Copy V0.99 prebeta 5 from 4. May 2009
EAC extraction logfile from 20. June 2009, 21:42
Various / The Art of Bernard Haitink (disc 6)
Used drive : TSSTcorpCDDVDW SH-S203D Adapter: 2 ID: 2
Read mode : Secure
Utilize accurate stream : Yes
Defeat audio cache : Yes
Make use of C2 pointers : No
Read offset correction : 6
Overread into Lead-In and Lead-Out : No
Fill up missing offset samples with silence : Yes
Delete leading and trailing silent blocks : No
Null samples used in CRC calculations : Yes
Used interface : Native Win32 interface for Win NT & 2000
Gap handling : Appended to previous track
Used output format : Internal WAV Routines
Sample format : 44.100 Hz; 16 Bit; Stereo
TOC of the extracted CD
Track | Start | Length | Start sector | End sector
---------------------------------------------------------
1 | 0:00.32 | 18:08.33 | 32 | 81664
2 | 18:08.65 | 5:26.30 | 81665 | 106144
3 | 23:35.20 | 15:42.17 | 106145 | 176811
4 | 39:17.37 | 10:52.73 | 176812 | 225784
5 | 50:10.35 | 5:00.07 | 225785 | 248291
6 | 55:10.42 | 7:46.40 | 248292 | 283281
7 | 62:57.07 | 2:37.65 | 283282 | 295121
8 | 65:34.72 | 3:55.63 | 295122 | 312809
9 | 69:30.60 | 6:37.12 | 312810 | 342596
Track 1
Filename E:\post\Various\2009 The Art of Bernard Haitink (disc 6)\01 - Dmitri Shostakovich - Symphony No. 5 in D minor, Op. 47- I. Moderato.wav
Pre-gap length 0:00:02.32
Peak level 95.9 %
Track quality 100.0 %
Test CRC 2CFEE374
Copy CRC 2CFEE374
Accurately ripped (confidence 6) [DB3A142A]
Copy OK
Track 2
Filename E:\post\Various\2009 The Art of Bernard Haitink (disc 6)\02 - Dmitri Shostakovich - Symphony No. 5 in D minor, Op. 47- II. Allegretto.wav
Pre-gap length 0:00:04.38
Peak level 97.3 %
Track quality 99.9 %
Test CRC 95FE06B3
Copy CRC 95FE06B3
Accurately ripped (confidence 6) [6A481BCB]
Copy OK
Track 3
Filename E:\post\Various\2009 The Art of Bernard Haitink (disc 6)\03 - Dmitri Shostakovich - Symphony No. 5 in D minor, Op. 47- III. Largo.wav
Pre-gap length 0:00:04.70
Peak level 67.7 %
Track quality 100.0 %
Test CRC 29548A34
Copy CRC 29548A34
Accurately ripped (confidence 6) [260A1164]
Copy OK
Track 4
Filename E:\post\Various\2009 The Art of Bernard Haitink (disc 6)\04 - Dmitri Shostakovich - Symphony No. 5 in D minor, Op. 47- IV. Allegro non troppo.wav
Pre-gap length 0:00:01.70
Peak level 95.7 %
Track quality 100.0 %
Test CRC 21FBC0CF
Copy CRC 21FBC0CF
Accurately ripped (confidence 6) [813C6308]
Copy OK
Track 5
Filename E:\post\Various\2009 The Art of Bernard Haitink (disc 6)\05 - Dmitri Shostakovich - Symphony No. 9 in E-flat major, Op. 70- I. Allegro.wav
Pre-gap length 0:00:18.14
Peak level 87.5 %
Track quality 100.0 %
Test CRC 690E01C3
Copy CRC 690E01C3
Accurately ripped (confidence 6) [43D55167]
Copy OK
Track 6
Filename E:\post\Various\2009 The Art of Bernard Haitink (disc 6)\06 - Dmitri Shostakovich - Symphony No. 9 in E-flat major, Op. 70- II. Moderato.wav
Pre-gap length 0:00:03.27
Peak level 47.3 %
Track quality 99.9 %
Test CRC 346BAFA2
Copy CRC 346BAFA2
Accurately ripped (confidence 6) [2545FD59]
Copy OK
Track 7
Filename E:\post\Various\2009 The Art of Bernard Haitink (disc 6)\07 - Dmitri Shostakovich - Symphony No. 9 in E-flat major, Op. 70- III. Presto.wav
Pre-gap length 0:00:02.10
Peak level 78.3 %
Track quality 100.0 %
Test CRC 0F1F7A69
Copy CRC 0F1F7A69
Accurately ripped (confidence 6) [BF864B50]
Copy OK
Track 8
Filename E:\post\Various\2009 The Art of Bernard Haitink (disc 6)\08 - Dmitri Shostakovich - Symphony No. 9 in E-flat major, Op. 70- IV. Largo.wav
Pre-gap length 0:00:00.01
Peak level 43.5 %
Track quality 100.0 %
Test CRC 597C6080
Copy CRC 597C6080
Accurately ripped (confidence 6) [3D6B514D]
Copy OK
Track 9
Filename E:\post\Various\2009 The Art of Bernard Haitink (disc 6)\09 - Dmitri Shostakovich - Symphony No. 9 in E-flat major, Op. 70- V. Allegretto - Allegro.wav
Peak level 95.6 %
Track quality 99.9 %
Test CRC 60A6CD1A
Copy CRC 60A6CD1A
Accurately ripped (confidence 6) [7B72F322]
Copy OK
All tracks accurately ripped
No errors occurred
End of status report
CD-7
Exact Audio Copy V0.99 prebeta 5 from 4. May 2009
EAC extraction logfile from 20. June 2009, 22:22
Various / The Art of Bernard Haitink (disc 7)
Used drive : TSSTcorpCDDVDW SH-S203D Adapter: 2 ID: 2
Read mode : Secure
Utilize accurate stream : Yes
Defeat audio cache : Yes
Make use of C2 pointers : No
Read offset correction : 6
Overread into Lead-In and Lead-Out : No
Fill up missing offset samples with silence : Yes
Delete leading and trailing silent blocks : No
Null samples used in CRC calculations : Yes
Used interface : Native Win32 interface for Win NT & 2000
Gap handling : Appended to previous track
Used output format : Internal WAV Routines
Sample format : 44.100 Hz; 16 Bit; Stereo
TOC of the extracted CD
Track | Start | Length | Start sector | End sector
---------------------------------------------------------
1 | 0:00.32 | 11:20.00 | 32 | 51031
2 | 11:20.32 | 7:09.00 | 51032 | 83206
3 | 18:29.32 | 6:21.00 | 83207 | 111781
4 | 24:50.32 | 10:32.00 | 111782 | 159181
5 | 35:22.32 | 8:46.00 | 159182 | 198631
6 | 44:08.32 | 6:31.00 | 198632 | 227956
7 | 50:39.32 | 8:03.00 | 227957 | 264181
8 | 58:42.32 | 8:30.00 | 264182 | 302431
9 | 67:12.32 | 4:37.33 | 302432 | 323239
10 | 71:49.65 | 4:35.42 | 323240 | 343906
Track 1
Filename E:\post\Various\2009 The Art of Bernard Haitink (disc 7)\01 - Claude Debussy - Prйlude a l'Apres-midi d'un faune.wav
Pre-gap length 0:00:02.32
Peak level 68.9 %
Track quality 100.0 %
Test CRC 07ADF7E2
Copy CRC 07ADF7E2
Accurately ripped (confidence 3) [6282D85A]
Copy OK
Track 2
Filename E:\post\Various\2009 The Art of Bernard Haitink (disc 7)\02 - Claude Debussy - Nocturnes for Orchestra- I. Nuages.wav
Pre-gap length 0:00:08.72
Peak level 45.1 %
Track quality 99.9 %
Test CRC E58B64A4
Copy CRC E58B64A4
Accurately ripped (confidence 3) [6772CD10]
Copy OK
Track 3
Filename E:\post\Various\2009 The Art of Bernard Haitink (disc 7)\03 - Claude Debussy - Nocturnes for Orchestra- II. Fetes.wav
Pre-gap length 0:00:03.51
Peak level 88.0 %
Track quality 100.0 %
Test CRC 4F9A31ED
Copy CRC 4F9A31ED
Accurately ripped (confidence 3) [E174D4AE]
Copy OK
Track 4
Filename E:\post\Various\2009 The Art of Bernard Haitink (disc 7)\04 - Claude Debussy - Nocturnes for Orchestra- III. Sirenes.wav
Pre-gap length 0:00:06.50
Peak level 70.0 %
Track quality 100.0 %
Test CRC 9C3520F1
Copy CRC 9C3520F1
Accurately ripped (confidence 3) [CE0FAB85]
Copy OK
Track 5
Filename E:\post\Various\2009 The Art of Bernard Haitink (disc 7)\05 - Claude Debussy - La Mer- I. De l'aube a midi sur la mer.wav
Pre-gap length 0:00:09.01
Peak level 97.8 %
Track quality 99.9 %
Test CRC 2CB3DDFA
Copy CRC 2CB3DDFA
Accurately ripped (confidence 3) [4582BEA5]
Copy OK
Track 6
Filename E:\post\Various\2009 The Art of Bernard Haitink (disc 7)\06 - Claude Debussy - La Mer- II. Jeux de vagues.wav
Pre-gap length 0:00:06.66
Peak level 60.2 %
Track quality 100.0 %
Test CRC BFE1E948
Copy CRC BFE1E948
Accurately ripped (confidence 3) [965355E7]
Copy OK
Track 7
Filename E:\post\Various\2009 The Art of Bernard Haitink (disc 7)\07 - Claude Debussy - La Mer- III. Dialogue du vent et de la mer.wav
Pre-gap length 0:00:03.63
Peak level 98.1 %
Track quality 100.0 %
Test CRC 296F4261
Copy CRC 296F4261
Accurately ripped (confidence 3) [B7E11C07]
Copy OK
Track 8
Filename E:\post\Various\2009 The Art of Bernard Haitink (disc 7)\08 - Claude Debussy - Rhapsodie pour orchestre et clarinette principale.wav
Pre-gap length 0:00:09.67
Peak level 72.7 %
Track quality 100.0 %
Test CRC 0E09CB39
Copy CRC 0E09CB39
Accurately ripped (confidence 3) [C2790FE0]
Copy OK
Track 9
Filename E:\post\Various\2009 The Art of Bernard Haitink (disc 7)\09 - Claude Debussy - Danses pour harpe et orchestre a cordes- I. Danse sacrйe.wav
Pre-gap length 0:00:07.51
Peak level 47.3 %
Track quality 100.0 %
Test CRC E07BA15F
Copy CRC E07BA15F
Accurately ripped (confidence 3) [D985B17E]
Copy OK
Track 10
Filename E:\post\Various\2009 The Art of Bernard Haitink (disc 7)\10 - Claude Debussy - Danses pour harpe et orchestre a cordes- II. Danse profane.wav
Peak level 73.3 %
Track quality 100.0 %
Test CRC 3F94DF54
Copy CRC 3F94DF54
Accurately ripped (confidence 3) [F61C0EB0]
Copy OK
All tracks accurately ripped
No errors occurred
End of status report
CD-8
Exact Audio Copy V0.99 prebeta 5 from 4. May 2009
EAC extraction logfile from 21. June 2009, 13:05
Various / The Art of Bernard Haitink (disc 8)
Used drive : TSSTcorpCDDVDW SH-S203D Adapter: 2 ID: 2
Read mode : Secure
Utilize accurate stream : Yes
Defeat audio cache : Yes
Make use of C2 pointers : No
Read offset correction : 6
Overread into Lead-In and Lead-Out : No
Fill up missing offset samples with silence : Yes
Delete leading and trailing silent blocks : No
Null samples used in CRC calculations : Yes
Used interface : Native Win32 interface for Win NT & 2000
Gap handling : Appended to previous track
Used output format : Internal WAV Routines
Sample format : 44.100 Hz; 16 Bit; Stereo
TOC of the extracted CD
Track | Start | Length | Start sector | End sector
---------------------------------------------------------
1 | 0:00.00 | 4:39.00 | 0 | 20924
2 | 4:39.00 | 2:42.01 | 20925 | 33075
3 | 7:21.01 | 4:00.08 | 33076 | 51083
4 | 11:21.09 | 5:49.08 | 51084 | 77266
5 | 17:10.17 | 6:38.50 | 77267 | 107166
6 | 23:48.67 | 3:29.23 | 107167 | 122864
7 | 27:18.15 | 4:16.63 | 122865 | 142127
8 | 31:35.03 | 2:11.00 | 142128 | 151952
9 | 33:46.03 | 2:39.33 | 151953 | 163910
10 | 36:25.36 | 6:32.24 | 163911 | 193334
11 | 42:57.60 | 3:17.32 | 193335 | 208141
12 | 46:15.17 | 3:37.13 | 208142 | 224429
13 | 49:52.30 | 2:26.17 | 224430 | 235396
14 | 52:18.47 | 5:01.70 | 235397 | 258041
15 | 57:20.42 | 4:53.40 | 258042 | 280056
16 | 62:14.07 | 5:00.05 | 280057 | 302561
17 | 67:14.12 | 3:54.00 | 302562 | 320111
Track 1
Filename E:\post\Various\2009 The Art of Bernard Haitink (disc 8)\01 - Maurice Ravel - Daphnis et Chloй Suite No. 1- I. Nocturne.wav
Pre-gap length 0:00:02.00
Peak level 44.2 %
Track quality 100.0 %
Test CRC CDF6C8DA
Copy CRC CDF6C8DA
Track not present in AccurateRip database
Copy OK
Track 2
Filename E:\post\Various\2009 The Art of Bernard Haitink (disc 8)\02 - Maurice Ravel - Daphnis et Chloй Suite No. 1- II. Interlude.wav
Peak level 88.3 %
Track quality 99.9 %
Test CRC AF1EE0CF
Copy CRC AF1EE0CF
Track not present in AccurateRip database
Copy OK
Track 3
Filename E:\post\Various\2009 The Art of Bernard Haitink (disc 8)\03 - Maurice Ravel - Daphnis et Chloй Suite No. 1- III. Danse guerriиre.wav
Peak level 96.1 %
Track quality 100.0 %
Test CRC CBBC984E
Copy CRC CBBC984E
Track not present in AccurateRip database
Copy OK
Track 4
Filename E:\post\Various\2009 The Art of Bernard Haitink (disc 8)\04 - Maurice Ravel - Daphnis et Chloй Suite No. 2- I. Lever du jour.wav
Pre-gap length 0:00:04.66
Peak level 99.8 %
Track quality 100.0 %
Test CRC C553B075
Copy CRC C553B075
Track not present in AccurateRip database
Copy OK
Track 5
Filename E:\post\Various\2009 The Art of Bernard Haitink (disc 8)\05 - Maurice Ravel - Daphnis et Chloй Suite No. 2- Pantomime.wav
Peak level 99.8 %
Track quality 100.0 %
Test CRC CF3CDCB5
Copy CRC CF3CDCB5
Track not present in AccurateRip database
Copy OK
Track 6
Filename E:\post\Various\2009 The Art of Bernard Haitink (disc 8)\06 - Maurice Ravel - Daphnis et Chloй Suite No. 2- Danse gйnerale.wav
Peak level 99.9 %
Track quality 100.0 %
Test CRC BF7D1C0D
Copy CRC BF7D1C0D
Track not present in AccurateRip database
Copy OK
Track 7
Filename E:\post\Various\2009 The Art of Bernard Haitink (disc 8)\07 - Maurice Ravel - Rapsodie espagnole- I. Prйlude а la nuit.wav
Pre-gap length 0:00:05.28
Peak level 54.9 %
Track quality 100.0 %
Test CRC 30492D3D
Copy CRC 30492D3D
Track not present in AccurateRip database
Copy OK
Track 8
Filename E:\post\Various\2009 The Art of Bernard Haitink (disc 8)\08 - Maurice Ravel - Rapsodie espagnole- II. Malagueсa.wav
Peak level 100.0 %
Track quality 100.0 %
Test CRC 5DE77E5F
Copy CRC 5DE77E5F
Track not present in AccurateRip database
Copy OK
Track 9
Filename E:\post\Various\2009 The Art of Bernard Haitink (disc 8)\09 - Maurice Ravel - Rapsodie espagnole- III. Habanera.wav
Peak level 26.0 %
Track quality 100.0 %
Test CRC A85C4C58
Copy CRC A85C4C58
Track not present in AccurateRip database
Copy OK
Track 10
Filename E:\post\Various\2009 The Art of Bernard Haitink (disc 8)\10 - Maurice Ravel - Rapsodie espagnole- IV. Feria.wav
Peak level 100.0 %
Track quality 100.0 %
Test CRC 030582AD
Copy CRC 030582AD
Track not present in AccurateRip database
Copy OK
Track 11
Filename E:\post\Various\2009 The Art of Bernard Haitink (disc 8)\11 - Maurice Ravel - La mer l'oie- I. Prйlude.wav
Pre-gap length 0:00:07.21
Peak level 76.4 %
Track quality 100.0 %
Test CRC 78B7A6A1
Copy CRC 78B7A6A1
Track not present in AccurateRip database
Copy OK
Track 12
Filename E:\post\Various\2009 The Art of Bernard Haitink (disc 8)\12 - Maurice Ravel - La mer l'oie- II. Danse du rouet et scиne - Interlude.wav
Peak level 99.4 %
Track quality 99.9 %
Test CRC 49E9A177
Copy CRC 49E9A177
Track not present in AccurateRip database
Copy OK
Track 13
Filename E:\post\Various\2009 The Art of Bernard Haitink (disc 8)\13 - Maurice Ravel - La mer l'oie- III. Pavane de la Belle au bois dormant.wav
Peak level 25.9 %
Track quality 100.0 %
Test CRC 4D7A4A25
Copy CRC 4D7A4A25
Track not present in AccurateRip database
Copy OK
Track 14
Filename E:\post\Various\2009 The Art of Bernard Haitink (disc 8)\14 - Maurice Ravel - La mer l'oie- IV. Entretiens de la Belle et de la Bкte.wav
Peak level 77.7 %
Track quality 100.0 %
Test CRC CDEDB358
Copy CRC CDEDB358
Track not present in AccurateRip database
Copy OK
Track 15
Filename E:\post\Various\2009 The Art of Bernard Haitink (disc 8)\15 - Maurice Ravel - La mer l'oie- V. Petit Poucet.wav
Peak level 42.3 %
Track quality 99.9 %
Test CRC 3C9C8EA6
Copy CRC 3C9C8EA6
Track not present in AccurateRip database
Copy OK
Track 16
Filename E:\post\Various\2009 The Art of Bernard Haitink (disc 8)\16 - Maurice Ravel - La mer l'oie- VI. Laideronette, impйratrice des pagodes.wav
Peak level 84.6 %
Track quality 100.0 %
Test CRC 3568BB84
Copy CRC 3568BB84
Track not present in AccurateRip database
Copy OK
Track 17
Filename E:\post\Various\2009 The Art of Bernard Haitink (disc 8)\17 - Maurice Ravel - La mer l'oie- VII. Le jardin fйerique.wav
Peak level 95.9 %
Track quality 100.0 %
Test CRC 37D2AA4D
Copy CRC 37D2AA4D
Track not present in AccurateRip database
Copy OK
None of the tracks are present in the AccurateRip database
No errors occurred
End of status report
CD-9
Exact Audio Copy V0.99 prebeta 5 from 4. May 2009
EAC extraction logfile from 21. June 2009, 13:37
Various / The Art of Bernard Haitink (disc 9)
Used drive : TSSTcorpCDDVDW SH-S203D Adapter: 2 ID: 2
Read mode : Secure
Utilize accurate stream : Yes
Defeat audio cache : Yes
Make use of C2 pointers : No
Read offset correction : 6
Overread into Lead-In and Lead-Out : No
Fill up missing offset samples with silence : Yes
Delete leading and trailing silent blocks : No
Null samples used in CRC calculations : Yes
Used interface : Native Win32 interface for Win NT & 2000
Gap handling : Appended to previous track
Used output format : Internal WAV Routines
Sample format : 44.100 Hz; 16 Bit; Stereo
TOC of the extracted CD
Track | Start | Length | Start sector | End sector
---------------------------------------------------------
1 | 0:00.00 | 9:24.33 | 0 | 42332
2 | 9:24.33 | 6:41.00 | 42333 | 72407
3 | 16:05.33 | 6:48.00 | 72408 | 103007
4 | 22:53.33 | 4:19.00 | 103008 | 122432
5 | 27:12.33 | 9:36.00 | 122433 | 165632
6 | 36:48.33 | 3:26.00 | 165633 | 181082
7 | 40:14.33 | 2:13.00 | 181083 | 191057
8 | 42:27.33 | 2:59.00 | 191058 | 204482
9 | 45:26.33 | 2:29.00 | 204483 | 215657
10 | 47:55.33 | 1:31.00 | 215658 | 222482
11 | 49:26.33 | 4:20.00 | 222483 | 241982
12 | 53:46.33 | 3:46.00 | 241983 | 258932
13 | 57:32.33 | 2:05.00 | 258933 | 268307
14 | 59:37.33 | 5:22.00 | 268308 | 292457
15 | 64:59.33 | 4:06.00 | 292458 | 310907
16 | 69:05.33 | 4:48.00 | 310908 | 332507
17 | 73:53.33 | 2:52.74 | 332508 | 345481
Track 1
Filename E:\post\Various\2009 The Art of Bernard Haitink (disc 9)\01 - Bйla Bartуk - Concerto for Orchestra Sz. 116 - I. Introduzione.wav
Pre-gap length 0:00:02.00
Peak level 92.7 %
Track quality 100.0 %
Test CRC 527CE11D
Copy CRC 527CE11D
Track not present in AccurateRip database
Copy OK
Track 2
Filename E:\post\Various\2009 The Art of Bernard Haitink (disc 9)\02 - Bйla Bartуk - Concerto for Orchestra Sz. 116 - II. Giuocco delle coppie.wav
Pre-gap length 0:00:02.50
Peak level 38.8 %
Track quality 100.0 %
Test CRC 6AAEAC8A
Copy CRC 6AAEAC8A
Track not present in AccurateRip database
Copy OK
Track 3
Filename E:\post\Various\2009 The Art of Bernard Haitink (disc 9)\03 - Bйla Bartуk - Concerto for Orchestra Sz. 116 - III. Elegia.wav
Pre-gap length 0:00:02.43
Peak level 85.3 %
Track quality 100.0 %
Test CRC B67A6081
Copy CRC B67A6081
Track not present in AccurateRip database
Copy OK
Track 4
Filename E:\post\Various\2009 The Art of Bernard Haitink (disc 9)\04 - Bйla Bartуk - Concerto for Orchestra Sz. 116 - IV. Intermezzo interotto.wav
Peak level 64.4 %
Track quality 99.9 %
Test CRC 57EF066E
Copy CRC 57EF066E
Track not present in AccurateRip database
Copy OK
Track 5
Filename E:\post\Various\2009 The Art of Bernard Haitink (disc 9)\05 - Bйla Bartуk - Concerto for Orchestra Sz. 116 - V. Finale.wav
Peak level 88.5 %
Track quality 100.0 %
Test CRC CFEBA230
Copy CRC CFEBA230
Track not present in AccurateRip database
Copy OK
Track 6
Filename E:\post\Various\2009 The Art of Bernard Haitink (disc 9)\06 - Bйla Bartуk - Dance Suite Sz. 77 - I. Moderato.wav
Pre-gap length 0:00:08.61
Peak level 82.4 %
Track quality 100.0 %
Test CRC FCF77BCC
Copy CRC FCF77BCC
Track not present in AccurateRip database
Copy OK
Track 7
Filename E:\post\Various\2009 The Art of Bernard Haitink (disc 9)\07 - Bйla Bartуk - Dance Suite Sz. 77 - II. Allegro molto.wav
Peak level 81.3 %
Track quality 100.0 %
Test CRC 2A36EC51
Copy CRC 2A36EC51
Track not present in AccurateRip database
Copy OK
Track 8
Filename E:\post\Various\2009 The Art of Bernard Haitink (disc 9)\08 - Bйla Bartуk - Dance Suite Sz. 77 - III. Allegro vivace.wav
Peak level 80.7 %
Track quality 99.9 %
Test CRC 2593C377
Copy CRC 2593C377
Track not present in AccurateRip database
Copy OK
Track 9
Filename E:\post\Various\2009 The Art of Bernard Haitink (disc 9)\09 - Bйla Bartуk - Dance Suite Sz. 77 - IV. Molto tranquillo.wav
Peak level 21.2 %
Track quality 100.0 %
Test CRC 81BE6B4D
Copy CRC 81BE6B4D
Track not present in AccurateRip database
Copy OK
Track 10
Filename E:\post\Various\2009 The Art of Bernard Haitink (disc 9)\10 - Bйla Bartуk - Dance Suite Sz. 77 - V. Comodo.wav
Peak level 38.3 %
Track quality 99.8 %
Test CRC 7AEADEC1
Copy CRC 7AEADEC1
Track not present in AccurateRip database
Copy OK
Track 11
Filename E:\post\Various\2009 The Art of Bernard Haitink (disc 9)\11 - Bйla Bartуk - Dance Suite Sz. 77 - VI. Finale (Allegro).wav
Pre-gap length 0:00:00.48
Peak level 83.7 %
Track quality 99.9 %
Test CRC F891D4D9
Copy CRC F891D4D9
Track not present in AccurateRip database
Copy OK
Track 12
Filename E:\post\Various\2009 The Art of Bernard Haitink (disc 9)\12 - Zoltбn Kodбly - Hбry Jбnos Suite - I. Prelude. The fairy tale begins.wav
Pre-gap length 0:00:09.46
Peak level 87.3 %
Track quality 100.0 %
Test CRC 9C59EEC0
Copy CRC 9C59EEC0
Track not present in AccurateRip database
Copy OK
Track 13
Filename E:\post\Various\2009 The Art of Bernard Haitink (disc 9)\13 - Zoltбn Kodбly - Hбry Jбnos Suite - II. Viennese musical clock.wav
Pre-gap length 0:00:04.36
Peak level 61.3 %
Track quality 100.0 %
Test CRC AF7975F6
Copy CRC AF7975F6
Track not present in AccurateRip database
Copy OK
Track 14
Filename E:\post\Various\2009 The Art of Bernard Haitink (disc 9)\14 - Zoltбn Kodбly - Hбry Jбnos Suite - III. Song.wav
Pre-gap length 0:00:05.54
Peak level 34.1 %
Track quality 100.0 %
Test CRC 808A92F4
Copy CRC 808A92F4
Track not present in AccurateRip database
Copy OK
Track 15
Filename E:\post\Various\2009 The Art of Bernard Haitink (disc 9)\15 - Zoltбn Kodбly - Hбry Jбnos Suite - IV. The battle and defeat of Napoleon.wav
Pre-gap length 0:00:04.55
Peak level 75.3 %
Track quality 100.0 %
Test CRC 73A60B6F
Copy CRC 73A60B6F
Track not present in AccurateRip database
Copy OK
Track 16
Filename E:\post\Various\2009 The Art of Bernard Haitink (disc 9)\16 - Zoltбn Kodбly - Hбry Jбnos Suite - V. Intermezzo.wav
Pre-gap length 0:00:02.51
Peak level 89.7 %
Track quality 100.0 %
Test CRC 1DA8B5FD
Copy CRC 1DA8B5FD
Track not present in AccurateRip database
Copy OK
Track 17
Filename E:\post\Various\2009 The Art of Bernard Haitink (disc 9)\17 - Zoltбn Kodбly - Hбry Jбnos Suite - VI. Entrance of the emperor and his court.wav
Pre-gap length 0:00:04.65
Peak level 90.1 %
Track quality 100.0 %
Test CRC 44C45CAF
Copy CRC 44C45CAF
Track not present in AccurateRip database
Copy OK
None of the tracks are present in the AccurateRip database
No errors occurred
End of status report
CD-10
Exact Audio Copy V0.99 prebeta 5 from 4. May 2009
EAC extraction logfile from 21. June 2009, 14:10
Various / The Art of Bernard Haitink (disc 10)
Used drive : TSSTcorpCDDVDW SH-S203D Adapter: 2 ID: 2
Read mode : Secure
Utilize accurate stream : Yes
Defeat audio cache : Yes
Make use of C2 pointers : No
Read offset correction : 6
Overread into Lead-In and Lead-Out : No
Fill up missing offset samples with silence : Yes
Delete leading and trailing silent blocks : No
Null samples used in CRC calculations : Yes
Used interface : Native Win32 interface for Win NT & 2000
Gap handling : Appended to previous track
Used output format : Internal WAV Routines
Sample format : 44.100 Hz; 16 Bit; Stereo
TOC of the extracted CD
Track | Start | Length | Start sector | End sector
---------------------------------------------------------
1 | 0:00.00 | 3:44.41 | 0 | 16840
2 | 3:44.41 | 7:04.27 | 16841 | 48667
3 | 10:48.68 | 2:45.33 | 48668 | 61075
4 | 13:34.26 | 4:29.18 | 61076 | 81268
5 | 18:03.44 | 3:39.47 | 81269 | 97740
6 | 21:43.16 | 3:16.14 | 97741 | 112454
7 | 24:59.30 | 13:33.15 | 112455 | 173444
8 | 38:32.45 | 3:35.20 | 173445 | 189589
9 | 42:07.65 | 3:11.45 | 189590 | 203959
10 | 45:19.35 | 1:17.65 | 203960 | 209799
11 | 46:37.25 | 3:27.25 | 209800 | 225349
12 | 50:04.50 | 1:50.02 | 225350 | 233601
13 | 51:54.52 | 0:41.13 | 233602 | 236689
14 | 52:35.65 | 1:39.11 | 236690 | 244125
15 | 54:15.01 | 4:26.14 | 244126 | 264089
16 | 58:41.15 | 3:09.35 | 264090 | 278299
17 | 61:50.50 | 1:36.05 | 278300 | 285504
18 | 63:26.55 | 0:52.17 | 285505 | 289421
19 | 64:18.72 | 3:36.65 | 289422 | 305686
20 | 67:55.62 | 4:55.15 | 305687 | 327826
Track 1
Filename E:\post\Various\2009 The Art of Bernard Haitink (disc 10)\01 - Igor Stravinsky - Scherzo а la russe.wav
Pre-gap length 0:00:02.00
Peak level 100.0 %
Track quality 100.0 %
Test CRC 1BD67570
Copy CRC 1BD67570
Track not present in AccurateRip database
Copy OK
Track 2
Filename E:\post\Various\2009 The Art of Bernard Haitink (disc 10)\02 - Igor Stravinsky - Petrouchka - I. The Shrovetide Fair - The Crowds - The Conjuring-trick.wav
Pre-gap length 0:00:05.46
Peak level 100.0 %
Track quality 99.9 %
Test CRC 34353A7F
Copy CRC 34353A7F
Track not present in AccurateRip database
Copy OK
Track 3
Filename E:\post\Various\2009 The Art of Bernard Haitink (disc 10)\03 - Igor Stravinsky - Petrouchka - Russian Dance.wav
Pre-gap length 0:00:00.10
Peak level 100.0 %
Track quality 100.0 %
Test CRC 35F912B1
Copy CRC 35F912B1
Track not present in AccurateRip database
Copy OK
Track 4
Filename E:\post\Various\2009 The Art of Bernard Haitink (disc 10)\04 - Igor Stravinsky - Petrouchka - III. Petrouchka's Room.wav
Peak level 81.2 %
Track quality 100.0 %
Test CRC B56EDEEA
Copy CRC B56EDEEA
Track not present in AccurateRip database
Copy OK
Track 5
Filename E:\post\Various\2009 The Art of Bernard Haitink (disc 10)\05 - Igor Stravinsky - Petrouchka - IV. The Moor's Room - Dance of the Ballerina.wav
Peak level 72.3 %
Track quality 100.0 %
Test CRC AB8ECDB0
Copy CRC AB8ECDB0
Track not present in AccurateRip database
Copy OK
Track 6
Filename E:\post\Various\2009 The Art of Bernard Haitink (disc 10)\06 - Igor Stravinsky - Petrouchka - V. Waltz (The Ballerina and the Moor).wav
Pre-gap length 0:00:00.03
Peak level 72.5 %
Track quality 100.0 %
Test CRC 2940BAB2
Copy CRC 2940BAB2
Track not present in AccurateRip database
Copy OK
Track 7
Filename E:\post\Various\2009 The Art of Bernard Haitink (disc 10)\07 - Igor Stravinsky - Petrouchka - VI. The Shrovetide Fair - The Wet-nurses - The Peasant and the Bear - The Merchant and the Gipsies.wav
Peak level 96.8 %
Track quality 99.9 %
Test CRC 56597D5F
Copy CRC 56597D5F
Track not present in AccurateRip database
Copy OK
Track 8
Filename E:\post\Various\2009 The Art of Bernard Haitink (disc 10)\08 - Igor Stravinsky - Le Sacre du printemps - Premiиre partie - L'Adoration de la terre - I. Introduction.wav
Pre-gap length 0:00:05.71
Peak level 18.4 %
Track quality 100.0 %
Test CRC E6E7E023
Copy CRC E6E7E023
Track not present in AccurateRip database
Copy OK
Track 9
Filename E:\post\Various\2009 The Art of Bernard Haitink (disc 10)\09 - Igor Stravinsky - Le Sacre du printemps - Premiиre partie - L'Adoration de la terre - II. Les augures printaniers - Danses de ado.wav
Pre-gap length 0:00:00.02
Peak level 63.3 %
Track quality 99.9 %
Test CRC CACC68E8
Copy CRC CACC68E8
Track not present in AccurateRip database
Copy OK
Track 10
Filename E:\post\Various\2009 The Art of Bernard Haitink (disc 10)\10 - Igor Stravinsky - Le Sacre du printemps - Premiиre partie - L'Adoration de la terre - III. Jeu du rapt.wav
Peak level 68.4 %
Track quality 100.0 %
Test CRC 3AA6FB12
Copy CRC 3AA6FB12
Track not present in AccurateRip database
Copy OK
Track 11
Filename E:\post\Various\2009 The Art of Bernard Haitink (disc 10)\11 - Igor Stravinsky - Le Sacre du printemps - Premiиre partie - L'Adoration de la terre - IV. Rondes printaniиres.wav
Peak level 87.3 %
Track quality 100.0 %
Test CRC D7F7CF2E
Copy CRC D7F7CF2E
Track not present in AccurateRip database
Copy OK
Track 12
Filename E:\post\Various\2009 The Art of Bernard Haitink (disc 10)\12 - Igor Stravinsky - Le Sacre du printemps - Premiиre partie - L'Adoration de la terre - V. Jeux de citйs rivales.wav
Peak level 67.0 %
Track quality 100.0 %
Test CRC 44B5F1CF
Copy CRC 44B5F1CF
Track not present in AccurateRip database
Copy OK
Track 13
Filename E:\post\Various\2009 The Art of Bernard Haitink (disc 10)\13 - Igor Stravinsky - Le Sacre du printemps - Premiиre partie - L'Adoration de la terre - VI. Corиge du sage - Le Sage.wav
Peak level 94.4 %
Track quality 99.7 %
Test CRC C1B4BE68
Copy CRC C1B4BE68
Track not present in AccurateRip database
Copy OK
Track 14
Filename E:\post\Various\2009 The Art of Bernard Haitink (disc 10)\14 - Igor Stravinsky - Le Sacre du printemps - Premiиre partie - L'Adoration de la terre - VII. Danse de la terre.wav
Peak level 90.7 %
Track quality 100.0 %
Test CRC 5F618E39
Copy CRC 5F618E39
Track not present in AccurateRip database
Copy OK
Track 15
Filename E:\post\Various\2009 The Art of Bernard Haitink (disc 10)\15 - Igor Stravinsky - Le Sacre du printemps - Deuxiиme partie- Le Sacrifice - I. Introduction.wav
Pre-gap length 0:00:06.33
Peak level 20.4 %
Track quality 100.0 %
Test CRC 51F49E05
Copy CRC 51F49E05
Track not present in AccurateRip database
Copy OK
Track 16
Filename E:\post\Various\2009 The Art of Bernard Haitink (disc 10)\16 - Igor Stravinsky - Le Sacre du printemps - Deuxiиme partie- Le Sacrifice - II. Cercles mystйrieux des adolescentes.wav
Pre-gap length 0:00:00.05
Peak level 54.0 %
Track quality 100.0 %
Test CRC 3CBA98C0
Copy CRC 3CBA98C0
Track not present in AccurateRip database
Copy OK
Track 17
Filename E:\post\Various\2009 The Art of Bernard Haitink (disc 10)\17 - Igor Stravinsky - Le Sacre du printemps - Deuxiиme partie- Le Sacrifice - Glorification d'йlue.wav
Peak level 73.1 %
Track quality 100.0 %
Test CRC DB6E1A62
Copy CRC DB6E1A62
Track not present in AccurateRip database
Copy OK
Track 18
Filename E:\post\Various\2009 The Art of Bernard Haitink (disc 10)\18 - Igor Stravinsky - Le Sacre du printemps - Deuxiиme partie- Le Sacrifice - Йvocation des ancкtres.wav
Peak level 76.9 %
Track quality 100.0 %
Test CRC CE373323
Copy CRC CE373323
Track not present in AccurateRip database
Copy OK
Track 19
Filename E:\post\Various\2009 The Art of Bernard Haitink (disc 10)\19 - Igor Stravinsky - Le Sacre du printemps - Deuxiиme partie- Le Sacrifice - Action rituelle des ancкtres.wav
Peak level 68.8 %
Track quality 100.0 %
Test CRC FEE3C4F4
Copy CRC FEE3C4F4
Track not present in AccurateRip database
Copy OK
Track 20
Filename E:\post\Various\2009 The Art of Bernard Haitink (disc 10)\20 - Igor Stravinsky - Le Sacre du printemps - Deuxiиme partie- Le Sacrifice - Danse sacrale- L'йlue.wav
Peak level 87.9 %
Track quality 99.9 %
Test CRC D4376D59
Copy CRC D4376D59
Track not present in AccurateRip database
Copy OK
None of the tracks are present in the AccurateRip database
No errors occurred
End of status report

Cue

CD-1
REM GENRE Classical
REM DATE 2009
REM DISCID 5D11F407
REM COMMENT "ExactAudioCopy v0.99pb5"
CATALOG 0028948019182
PERFORMER "Various"
TITLE "The Art of Bernard Haitink (disc 1)"
FILE "01 - Ludwig van Beethoven - Violin Concerto in D Major, Op. 61- I. Allegro ma non troppo.wav" WAVE
TRACK 01 AUDIO
TITLE "Violin Concerto in D Major, Op. 61: I. Allegro ma non troppo"
PERFORMER "Ludwig van Beethoven"
ISRC Cl@]07400005
INDEX 01 00:00:00
FILE "02 - Ludwig van Beethoven - Violin Concerto in D Major, Op. 61- II. Larghetto.wav" WAVE
TRACK 02 AUDIO
TITLE "Violin Concerto in D Major, Op. 61: II. Larghetto"
PERFORMER "Ludwig van Beethoven"
ISRC Cl@]07400006
INDEX 01 00:00:00
FILE "03 - Ludwig van Beethoven - Violin Concerto in D Major, Op. 61- III. Rondo - Allegro.wav" WAVE
TRACK 03 AUDIO
TITLE "Violin Concerto in D Major, Op. 61: III. Rondo - Allegro"
PERFORMER "Ludwig van Beethoven"
ISRC Cl@]07400007
INDEX 01 00:00:00
TRACK 04 AUDIO
TITLE "Symphony No. 5 in C Minor, Op. 67: I. Allegro con brio"
PERFORMER "Ludwig van Beethoven"
ISRC Cl@]08530101
INDEX 00 10:37:15
FILE "04 - Ludwig van Beethoven - Symphony No. 5 in C Minor, Op. 67- I. Allegro con brio.wav" WAVE
INDEX 01 00:00:00
TRACK 05 AUDIO
TITLE "Symphony No. 5 in C Minor, Op. 67: II. Andante con moto"
PERFORMER "Ludwig van Beethoven"
ISRC Cl@]08530102
INDEX 00 07:04:68
FILE "05 - Ludwig van Beethoven - Symphony No. 5 in C Minor, Op. 67- II. Andante con moto.wav" WAVE
INDEX 01 00:00:00
TRACK 06 AUDIO
TITLE "Symphony No. 5 in C Minor, Op. 67: III. Allegro"
PERFORMER "Ludwig van Beethoven"
ISRC Cl@]08530103
INDEX 00 09:56:69
FILE "06 - Ludwig van Beethoven - Symphony No. 5 in C Minor, Op. 67- III. Allegro.wav" WAVE
INDEX 01 00:00:00
FILE "Various\2009 The Art of Bernard Haitink (disc 1)\07 - Ludwig van Beethoven - Symphony No. 5 in C Minor, Op. 67- IV. Allegro.wav" WAVE
TRACK 07 AUDIO
TITLE "Symphony No. 5 in C Minor, Op. 67: IV. Allegro"
PERFORMER "Ludwig van Beethoven"
ISRC Cl@]08530104
INDEX 01 00:00:00
CD-2
REM GENRE Classical
REM DATE 2009
REM DISCID 63125D08
REM COMMENT "ExactAudioCopy v0.99pb5"
CATALOG 0028948019199
PERFORMER "Various"
TITLE "The Art of Bernard Haitink (disc 2)"
FILE "01 - Johannes Brahms - Piano Concerto No. 1 in D Minor, Op. 15- I. Maestoso - Poco piщ moderato.wav" WAVE
TRACK 01 AUDIO
TITLE "Piano Concerto No. 1 in D Minor, Op. 15: I. Maestoso - Poco piщ moderato"
PERFORMER "Johannes Brahms"
ISRC GAU@78111531
INDEX 01 00:00:00
TRACK 02 AUDIO
TITLE "Piano Concerto No. 1 in D Minor, Op. 15: II. Adagio"
PERFORMER "Johannes Brahms"
ISRC GAU@78111532
INDEX 00 22:02:21
FILE "02 - Johannes Brahms - Piano Concerto No. 1 in D Minor, Op. 15- II. Adagio.wav" WAVE
INDEX 01 00:00:00
FILE "03 - Johannes Brahms - Piano Concerto No. 1 in D Minor, Op. 15- III. Allegro non troppo.wav" WAVE
TRACK 03 AUDIO
TITLE "Piano Concerto No. 1 in D Minor, Op. 15: III. Allegro non troppo"
PERFORMER "Johannes Brahms"
ISRC GAU@78111533
INDEX 01 00:00:00
TRACK 04 AUDIO
TITLE "Serenade No. 2 in A major, Op. 16: I. Allegro moderato"
PERFORMER "Johannes Brahms"
ISRC Cl@]07817901
INDEX 00 12:35:57
FILE "04 - Johannes Brahms - Serenade No. 2 in A major, Op. 16- I. Allegro moderato.wav" WAVE
INDEX 01 00:00:00
TRACK 05 AUDIO
TITLE "Serenade No. 2 in A major, Op. 16: II. Scherzo (Vivace)"
PERFORMER "Johannes Brahms"
ISRC Cl@]07817902
INDEX 00 07:42:53
FILE "05 - Johannes Brahms - Serenade No. 2 in A major, Op. 16- II. Scherzo (Vivace).wav" WAVE
INDEX 01 00:00:00
TRACK 06 AUDIO
TITLE "Serenade No. 2 in A major, Op. 16: III. Adaigio non troppo"
PERFORMER "Johannes Brahms"
ISRC Cl@]07817903
INDEX 00 02:43:22
FILE "06 - Johannes Brahms - Serenade No. 2 in A major, Op. 16- III. Adaigio non troppo.wav" WAVE
INDEX 01 00:00:00
FILE "07 - Johannes Brahms - Serenade No. 2 in A major, Op. 16- Quasi menuetto - Trio.wav" WAVE
TRACK 07 AUDIO
TITLE "Serenade No. 2 in A major, Op. 16: Quasi menuetto - Trio"
PERFORMER "Johannes Brahms"
ISRC Cl@]07817904
INDEX 01 00:00:00
TRACK 08 AUDIO
TITLE "Serenade No. 2 in A major, Op. 16: Rondo (Allegro)"
PERFORMER "Johannes Brahms"
ISRC Cl@]07817905
INDEX 00 05:25:59
FILE "08 - Johannes Brahms - Serenade No. 2 in A major, Op. 16- Rondo (Allegro).wav" WAVE
INDEX 01 00:00:00
CD-3
REM GENRE Classical
REM DATE 2009
REM DISCID AA10C30C
REM COMMENT "ExactAudioCopy v0.99pb5"
CATALOG 0028948019205
PERFORMER "Various"
TITLE "The Art of Bernard Haitink (disc 3)"
FILE "01 - Antonнn Dvorбk - Symphony No. 7 in D Minor, Op. 70- I. Allegro maestoso.wav" WAVE
TRACK 01 AUDIO
TITLE "Symphony No. 7 in D Minor, Op. 70: I. Allegro maestoso"
PERFORMER "Antonнn Dvorбk"
ISRC Cl@]05900190
INDEX 01 00:00:00
TRACK 02 AUDIO
TITLE "Symphony No. 7 in D Minor, Op. 70: II. Poco adagio"
PERFORMER "Antonнn Dvorбk"
ISRC Cl@]05900191
INDEX 00 10:38:27
FILE "02 - Antonнn Dvorбk - Symphony No. 7 in D Minor, Op. 70- II. Poco adagio.wav" WAVE
INDEX 01 00:00:00
TRACK 03 AUDIO
TITLE "Symphony No. 7 in D Minor, Op. 70: III. Scherzo: vivace"
PERFORMER "Antonнn Dvorбk"
ISRC Cl@]05900192
INDEX 00 09:20:68
FILE "03 - Antonнn Dvorбk - Symphony No. 7 in D Minor, Op. 70- III. Scherzo- vivace.wav" WAVE
INDEX 01 00:00:00
FILE "04 - Antonнn Dvorбk - Symphony No. 7 in D Minor, Op. 70- IV. Finale- allegro.wav" WAVE
TRACK 04 AUDIO
TITLE "Symphony No. 7 in D Minor, Op. 70: IV. Finale: allegro"
PERFORMER "Antonнn Dvorбk"
ISRC Cl@]05900193
INDEX 01 00:00:00
TRACK 05 AUDIO
TITLE "Slavonic Dances, Op. 46 No. 1 in C Major (Presto)"
PERFORMER "Antonнn Dvorбk"
ISRC Cl@]05900195
INDEX 00 08:54:08
FILE "05 - Antonнn Dvorбk - Slavonic Dances, Op. 46 No. 1 in C Major (Presto).wav" WAVE
INDEX 01 00:00:00
TRACK 06 AUDIO
TITLE "Slavonic Dances, Op. 46 No. 2 in E Minor (Allegretto scherzando)"
PERFORMER "Antonнn Dvorбk"
ISRC Cl@]06300410
INDEX 00 04:09:45
FILE "06 - Antonнn Dvorбk - Slavonic Dances, Op. 46 No. 2 in E Minor (Allegretto scherzando).wav" WAVE
INDEX 01 00:00:00
TRACK 07 AUDIO
TITLE "Slavonic Dances, Op. 46 No. 3 in A-flat Major (Poco allegro)"
PERFORMER "Antonнn Dvorбk"
ISRC Cl@]05900194
INDEX 00 04:46:30
FILE "07 - Antonнn Dvorбk - Slavonic Dances, Op. 46 No. 3 in A-flat Major (Poco allegro).wav" WAVE
INDEX 01 00:00:00
TRACK 08 AUDIO
TITLE "Slavonic Dances, Op. 46 No. 4 in F Major (Tempo di minuetto)"
PERFORMER "Antonнn Dvorбk"
ISRC Cl@]06300411
INDEX 00 04:29:56
FILE "08 - Antonнn Dvorбk - Slavonic Dances, Op. 46 No. 4 in F Major (Tempo di minuetto).wav" WAVE
INDEX 01 00:00:00
TRACK 09 AUDIO
TITLE "Slavonic Dances, Op. 46 No. 5 in A Major (Allegro vivace)"
PERFORMER "Antonнn Dvorбk"
ISRC Cl@]06300531
INDEX 00 06:11:17
FILE "09 - Antonнn Dvorбk - Slavonic Dances, Op. 46 No. 5 in A Major (Allegro vivace).wav" WAVE
INDEX 01 00:00:00
TRACK 10 AUDIO
TITLE "Slavonic Dances, Op. 46 No. 6 in D Major (Allegrettio scherzando)"
PERFORMER "Antonнn Dvorбk"
ISRC Cl@]06300412
INDEX 00 03:32:73
FILE "10 - Antonнn Dvorбk - Slavonic Dances, Op. 46 No. 6 in D Major (Allegrettio scherzando).wav" WAVE
INDEX 01 00:00:00
TRACK 11 AUDIO
TITLE "Slavonic Dances, Op. 46 No. 7 in C Minor (Allegro assai)"
PERFORMER "Antonнn Dvorбk"
ISRC Cl@]05900196
INDEX 00 04:33:66
FILE "11 - Antonнn Dvorбk - Slavonic Dances, Op. 46 No. 7 in C Minor (Allegro assai).wav" WAVE
INDEX 01 00:00:00
TRACK 12 AUDIO
TITLE "Slavonic Dances, Op. 46 No. 8 in G Minor (Presto)"
PERFORMER "Antonнn Dvorбk"
ISRC Cl@]05900197
INDEX 00 03:10:31
FILE "12 - Antonнn Dvorбk - Slavonic Dances, Op. 46 No. 8 in G Minor (Presto).wav" WAVE
INDEX 01 00:00:00
CD-4
REM GENRE Classical
REM DATE 2009
REM DISCID 46126105
REM COMMENT "ExactAudioCopy v0.99pb5"
CATALOG 0028948019212
PERFORMER "Various"
TITLE "The Art of Bernard Haitink (disc 4)"
FILE "01 - Richard Wagner - Prelude & Liebestod.wav" WAVE
TRACK 01 AUDIO
TITLE "Prelude & Liebestod"
PERFORMER "Richard Wagner"
ISRC Cl@]07400689
INDEX 01 00:00:00
TRACK 02 AUDIO
TITLE "Symphony No. 3 in D minor (1877 version): I. GemдЯigt, mehr bewegt, misterioso"
PERFORMER "Anton Bruckner"
ISRC Cl@]08800501
INDEX 00 16:41:18
FILE "02 - Anton Bruckner - Symphony No. 3 in D minor (1877 version)- I. GemдЯigt, mehr bewegt, misterioso.wav" WAVE
INDEX 01 00:00:00
TRACK 03 AUDIO
TITLE "Symphony No. 3 in D minor (1877 version): II. Andante. Bewegt, feierlich, qua..."
PERFORMER "Anton Bruckner"
ISRC Cl@]08800502
INDEX 00 21:19:43
FILE "03 - Anton Bruckner - Symphony No. 3 in D minor (1877 version)- II. Andante. Bewegt, feierlich, quasi adagio.wav" WAVE
INDEX 01 00:00:00
TRACK 04 AUDIO
TITLE "Symphony No. 3 in D minor (1877 version): III. Scherzo. Ziemlich schnell"
PERFORMER "Anton Bruckner"
ISRC Cl@]08800503
INDEX 00 16:55:23
FILE "04 - Anton Bruckner - Symphony No. 3 in D minor (1877 version)- III. Scherzo. Ziemlich schnell.wav" WAVE
INDEX 01 00:00:00
TRACK 05 AUDIO
TITLE "Symphony No. 3 in D minor (1877 version): IV. Finale. Allegro"
PERFORMER "Anton Bruckner"
ISRC Cl@]08800504
INDEX 00 07:30:30
FILE "05 - Anton Bruckner - Symphony No. 3 in D minor (1877 version)- IV. Finale. Allegro.wav" WAVE
INDEX 01 00:00:00
CD-5
REM GENRE Classical
REM DATE 2009
REM DISCID 3D128A05
REM COMMENT "ExactAudioCopy v0.99pb5"
CATALOG 0028948019229
PERFORMER "Various"
TITLE "The Art of Bernard Haitink (disc 5)"
FILE "01 - Gustav Mahler - Symphony No. 1 in D major- I. Langsam. Schleppend.wav" WAVE
TRACK 01 AUDIO
TITLE "Symphony No. 1 in D major: I. Langsam. Schleppend"
PERFORMER "Gustav Mahler"
ISRC Cl@]06200109
INDEX 01 00:00:00
TRACK 02 AUDIO
TITLE "Symphony No. 1 in D major: II. Krдftig bewegt"
PERFORMER "Gustav Mahler"
ISRC Cl@]06200110
INDEX 00 13:19:46
FILE "02 - Gustav Mahler - Symphony No. 1 in D major- II. Krдftig bewegt.wav" WAVE
INDEX 01 00:00:00
TRACK 03 AUDIO
TITLE "Symphony No. 1 in D major: III. Feierlich und gemessen, ohne zu schleppen"
PERFORMER "Gustav Mahler"
ISRC Cl@]06200111
INDEX 00 07:43:23
FILE "03 - Gustav Mahler - Symphony No. 1 in D major- III. Feierlich und gemessen, ohne zu schleppen.wav" WAVE
INDEX 01 00:00:00
FILE "04 - Gustav Mahler - Symphony No. 1 in D major- IV. Stьrmisch bewegt.wav" WAVE
TRACK 04 AUDIO
TITLE "Symphony No. 1 in D major: IV. Stьrmisch bewegt"
PERFORMER "Gustav Mahler"
ISRC Cl@]06200111
INDEX 01 00:00:00
TRACK 05 AUDIO
TITLE "Tod und Verklдrung, Op. 24"
PERFORMER "Richard Strauss"
ISRC Cl@]07926101
INDEX 00 20:01:39
FILE "05 - Richard Strauss - Tod und Verklдrung, Op. 24.wav" WAVE
INDEX 01 00:00:00
CD-6
REM GENRE Symphony
REM DATE 2009
REM DISCID 7811D709
REM COMMENT "ExactAudioCopy v0.99pb5"
CATALOG 0028948019236
PERFORMER "Various"
TITLE "The Art of Bernard Haitink (disc 6)"
FILE "01 - Dmitri Shostakovich - Symphony No. 5 in D minor, Op. 47- I. Moderato.wav" WAVE
TRACK 01 AUDIO
TITLE "Symphony No. 5 in D minor, Op. 47: I. Moderato"
PERFORMER "Dmitri Shostakovich"
ISRC GAU@78100251
PREGAP 00:00:32
INDEX 01 00:00:00
TRACK 02 AUDIO
TITLE "Symphony No. 5 in D minor, Op. 47: II. Allegretto"
PERFORMER "Dmitri Shostakovich"
ISRC GAU@78100252
INDEX 00 18:03:70
FILE "02 - Dmitri Shostakovich - Symphony No. 5 in D minor, Op. 47- II. Allegretto.wav" WAVE
INDEX 01 00:00:00
TRACK 03 AUDIO
TITLE "Symphony No. 5 in D minor, Op. 47: III. Largo"
PERFORMER "Dmitri Shostakovich"
ISRC GAU@78100253
INDEX 00 05:21:35
FILE "03 - Dmitri Shostakovich - Symphony No. 5 in D minor, Op. 47- III. Largo.wav" WAVE
INDEX 01 00:00:00
TRACK 04 AUDIO
TITLE "Symphony No. 5 in D minor, Op. 47: IV. Allegro non troppo"
PERFORMER "Dmitri Shostakovich"
ISRC GAU@78100254
INDEX 00 15:40:22
FILE "04 - Dmitri Shostakovich - Symphony No. 5 in D minor, Op. 47- IV. Allegro non troppo.wav" WAVE
INDEX 01 00:00:00
TRACK 05 AUDIO
TITLE "Symphony No. 9 in E-flat major, Op. 70: I. Allegro"
PERFORMER "Dmitri Shostakovich"
ISRC GAU@78010041
INDEX 00 10:34:59
FILE "05 - Dmitri Shostakovich - Symphony No. 9 in E-flat major, Op. 70- I. Allegro.wav" WAVE
INDEX 01 00:00:00
TRACK 06 AUDIO
TITLE "Symphony No. 9 in E-flat major, Op. 70: II. Moderato"
PERFORMER "Dmitri Shostakovich"
ISRC GAU@78010042
INDEX 00 04:56:55
FILE "06 - Dmitri Shostakovich - Symphony No. 9 in E-flat major, Op. 70- II. Moderato.wav" WAVE
INDEX 01 00:00:00
TRACK 07 AUDIO
TITLE "Symphony No. 9 in E-flat major, Op. 70: III. Presto"
PERFORMER "Dmitri Shostakovich"
ISRC GAU@78010043
INDEX 00 07:44:30
FILE "07 - Dmitri Shostakovich - Symphony No. 9 in E-flat major, Op. 70- III. Presto.wav" WAVE
INDEX 01 00:00:00
TRACK 08 AUDIO
TITLE "Symphony No. 9 in E-flat major, Op. 70: IV. Largo"
PERFORMER "Dmitri Shostakovich"
ISRC GAU@78010044
INDEX 00 02:37:64
FILE "08 - Dmitri Shostakovich - Symphony No. 9 in E-flat major, Op. 70- IV. Largo.wav" WAVE
INDEX 01 00:00:00
FILE "09 - Dmitri Shostakovich - Symphony No. 9 in E-flat major, Op. 70- V. Allegretto - Allegro.wav" WAVE
TRACK 09 AUDIO
TITLE "Symphony No. 9 in E-flat major, Op. 70: V. Allegretto - Allegro"
PERFORMER "Dmitri Shostakovich"
ISRC GAU@78010045
INDEX 01 00:00:00
CD-7
REM GENRE Classical
REM DATE 2009
REM DISCID 6611E90A
REM COMMENT "ExactAudioCopy v0.99pb5"
CATALOG 0028948019243
PERFORMER "Various"
TITLE "The Art of Bernard Haitink (disc 7)"
FILE "01 - Claude Debussy - Prйlude a l'Apres-midi d'un faune.wav" WAVE
TRACK 01 AUDIO
TITLE "Prйlude a l'Apres-midi d'un faune"
PERFORMER "Claude Debussy"
ISRC Cl@]07617704
PREGAP 00:00:32
INDEX 01 00:00:00
TRACK 02 AUDIO
TITLE "Nocturnes for Orchestra: I. Nuages"
PERFORMER "Claude Debussy"
ISRC Cl@]07818701
INDEX 00 11:11:03
FILE "02 - Claude Debussy - Nocturnes for Orchestra- I. Nuages.wav" WAVE
INDEX 01 00:00:00
TRACK 03 AUDIO
TITLE "Nocturnes for Orchestra: II. Fetes"
PERFORMER "Claude Debussy"
ISRC Cl@]07818702
INDEX 00 07:05:24
FILE "03 - Claude Debussy - Nocturnes for Orchestra- II. Fetes.wav" WAVE
INDEX 01 00:00:00
TRACK 04 AUDIO
TITLE "Nocturnes for Orchestra: III. Sirenes"
PERFORMER "Claude Debussy"
ISRC Cl@]07818703
INDEX 00 06:14:25
FILE "04 - Claude Debussy - Nocturnes for Orchestra- III. Sirenes.wav" WAVE
INDEX 01 00:00:00
TRACK 05 AUDIO
TITLE "La Mer: I. De l'aube a midi sur la mer"
PERFORMER "Claude Debussy"
ISRC Cl@]07617701
INDEX 00 10:22:74
FILE "05 - Claude Debussy - La Mer- I. De l'aube a midi sur la mer.wav" WAVE
INDEX 01 00:00:00
TRACK 06 AUDIO
TITLE "La Mer: II. Jeux de vagues"
PERFORMER "Claude Debussy"
ISRC Cl@]07617702
INDEX 00 08:39:09
FILE "06 - Claude Debussy - La Mer- II. Jeux de vagues.wav" WAVE
INDEX 01 00:00:00
TRACK 07 AUDIO
TITLE "La Mer: III. Dialogue du vent et de la mer"
PERFORMER "Claude Debussy"
ISRC Cl@]07617703
INDEX 00 06:27:12
FILE "07 - Claude Debussy - La Mer- III. Dialogue du vent et de la mer.wav" WAVE
INDEX 01 00:00:00
TRACK 08 AUDIO
TITLE "Rhapsodie pour orchestre et clarinette principale"
PERFORMER "Claude Debussy"
ISRC Cl@]07617705
INDEX 00 07:53:08
FILE "08 - Claude Debussy - Rhapsodie pour orchestre et clarinette principale.wav" WAVE
INDEX 01 00:00:00
TRACK 09 AUDIO
TITLE "Danses pour harpe et orchestre a cordes: I. Danse sacrйe"
PERFORMER "Claude Debussy"
ISRC Cl@]07715206
INDEX 00 08:22:24
FILE "09 - Claude Debussy - Danses pour harpe et orchestre a cordes- I. Danse sacrйe.wav" WAVE
INDEX 01 00:00:00
FILE "10 - Claude Debussy - Danses pour harpe et orchestre a cordes- II. Danse profane.wav" WAVE
TRACK 10 AUDIO
TITLE "Danses pour harpe et orchestre a cordes: II. Danse profane"
PERFORMER "Claude Debussy"
ISRC Cl@]07715207
INDEX 01 00:00:00
CD-8
REM GENRE Classical
REM DATE 2009
REM DISCID F410AC11
REM COMMENT "ExactAudioCopy v0.99pb5"
CATALOG 0028948019250
PERFORMER "Various"
TITLE "The Art of Bernard Haitink (disc 8)"
FILE "01 - Maurice Ravel - Daphnis et Chloй Suite No. 1- I. Nocturne.wav" WAVE
TRACK 01 AUDIO
TITLE "Daphnis et Chloй Suite No. 1: I. Nocturne"
PERFORMER "Maurice Ravel"
ISRC Cl@]07100206
INDEX 01 00:00:00
FILE "02 - Maurice Ravel - Daphnis et Chloй Suite No. 1- II. Interlude.wav" WAVE
TRACK 02 AUDIO
TITLE "Daphnis et Chloй Suite No. 1: II. Interlude"
PERFORMER "Maurice Ravel"
ISRC Cl@]07100207
INDEX 01 00:00:00
FILE "03 - Maurice Ravel - Daphnis et Chloй Suite No. 1- III. Danse guerriиre.wav" WAVE
TRACK 03 AUDIO
TITLE "Daphnis et Chloй Suite No. 1: III. Danse guerriиre"
PERFORMER "Maurice Ravel"
ISRC Cl@]07100208
INDEX 01 00:00:00
TRACK 04 AUDIO
TITLE "Daphnis et Chloй Suite No. 2: I. Lever du jour"
PERFORMER "Maurice Ravel"
ISRC Cl@]07100209
INDEX 00 03:55:17
FILE "04 - Maurice Ravel - Daphnis et Chloй Suite No. 2- I. Lever du jour.wav" WAVE
INDEX 01 00:00:00
FILE "05 - Maurice Ravel - Daphnis et Chloй Suite No. 2- Pantomime.wav" WAVE
TRACK 05 AUDIO
TITLE "Daphnis et Chloй Suite No. 2: Pantomime"
PERFORMER "Maurice Ravel"
ISRC Cl@]07100209
INDEX 01 00:00:00
FILE "06 - Maurice Ravel - Daphnis et Chloй Suite No. 2- Danse gйnerale.wav" WAVE
TRACK 06 AUDIO
TITLE "Daphnis et Chloй Suite No. 2: Danse gйnerale"
PERFORMER "Maurice Ravel"
ISRC Cl@]07100210
INDEX 01 00:00:00
TRACK 07 AUDIO
TITLE "Rapsodie espagnole: I. Prйlude а la nuit"
PERFORMER "Maurice Ravel"
ISRC Cl@]09501001
INDEX 00 03:23:70
FILE "07 - Maurice Ravel - Rapsodie espagnole- I. Prйlude а la nuit.wav" WAVE
INDEX 01 00:00:00
FILE "08 - Maurice Ravel - Rapsodie espagnole- II. Malagueсa.wav" WAVE
TRACK 08 AUDIO
TITLE "Rapsodie espagnole: II. Malagueсa"
PERFORMER "Maurice Ravel"
ISRC Cl@]09501002
INDEX 01 00:00:00
FILE "09 - Maurice Ravel - Rapsodie espagnole- III. Habanera.wav" WAVE
TRACK 09 AUDIO
TITLE "Rapsodie espagnole: III. Habanera"
PERFORMER "Maurice Ravel"
ISRC Cl@]09501003
INDEX 01 00:00:00
FILE "10 - Maurice Ravel - Rapsodie espagnole- IV. Feria.wav" WAVE
TRACK 10 AUDIO
TITLE "Rapsodie espagnole: IV. Feria"
PERFORMER "Maurice Ravel"
ISRC Cl@]09501004
INDEX 01 00:00:00
TRACK 11 AUDIO
TITLE "La mer l'oie: I. Prйlude"
PERFORMER "Maurice Ravel"
ISRC Cl@]09501006
INDEX 00 06:25:03
FILE "11 - Maurice Ravel - La mer l'oie- I. Prйlude.wav" WAVE
INDEX 01 00:00:00
FILE "12 - Maurice Ravel - La mer l'oie- II. Danse du rouet et scиne - Interlude.wav" WAVE
TRACK 12 AUDIO
TITLE "La mer l'oie: II. Danse du rouet et scиne - Interlude"
PERFORMER "Maurice Ravel"
ISRC Cl@]09501007
INDEX 01 00:00:00
FILE "13 - Maurice Ravel - La mer l'oie- III. Pavane de la Belle au bois dormant.wav" WAVE
TRACK 13 AUDIO
TITLE "La mer l'oie: III. Pavane de la Belle au bois dormant"
PERFORMER "Maurice Ravel"
ISRC Cl@]09501008
INDEX 01 00:00:00
FILE "14 - Maurice Ravel - La mer l'oie- IV. Entretiens de la Belle et de la Bкte.wav" WAVE
TRACK 14 AUDIO
TITLE "La mer l'oie: IV. Entretiens de la Belle et de la Bкte"
PERFORMER "Maurice Ravel"
ISRC Cl@]09501009
INDEX 01 00:00:00
FILE "15 - Maurice Ravel - La mer l'oie- V. Petit Poucet.wav" WAVE
TRACK 15 AUDIO
TITLE "La mer l'oie: V. Petit Poucet"
PERFORMER "Maurice Ravel"
ISRC Cl@]09501010
INDEX 01 00:00:00
FILE "16 - Maurice Ravel - La mer l'oie- VI. Laideronette, impйratrice des pagodes.wav" WAVE
TRACK 16 AUDIO
TITLE "La mer l'oie: VI. Laideronette, impйratrice des pagodes"
PERFORMER "Maurice Ravel"
ISRC Cl@]09501011
INDEX 01 00:00:00
FILE "17 - Maurice Ravel - La mer l'oie- VII. Le jardin fйerique.wav" WAVE
TRACK 17 AUDIO
TITLE "La mer l'oie: VII. Le jardin fйerique"
PERFORMER "Maurice Ravel"
ISRC Cl@]09501012
INDEX 01 00:00:00
CD-9
REM GENRE Classical
REM DATE 2009
REM DISCID 1611FE11
REM COMMENT "ExactAudioCopy v0.99pb5"
CATALOG 0028948019267
PERFORMER "Various"
TITLE "The Art of Bernard Haitink (disc 9)"
FILE "01 - BИla BartСk - Concerto for Orchestra Sz. 116 - I. Introduzione.wav" WAVE
TRACK 01 AUDIO
TITLE "Concerto for Orchestra Sz. 116 - I. Introduzione"
PERFORMER "BИla BartСk"
ISRC Cl@]06000121
INDEX 01 00:00:00
TRACK 02 AUDIO
TITLE "Concerto for Orchestra Sz. 116 - II. Giuocco delle coppie"
PERFORMER "BИla BartСk"
ISRC Cl@]06000122
INDEX 00 09:21:58
FILE "02 - BИla BartСk - Concerto for Orchestra Sz. 116 - II. Giuocco delle coppie.wav" WAVE
INDEX 01 00:00:00
TRACK 03 AUDIO
TITLE "Concerto for Orchestra Sz. 116 - III. Elegia"
PERFORMER "BИla BartСk"
ISRC Cl@]06000123
INDEX 00 06:38:32
FILE "03 - BИla BartСk - Concerto for Orchestra Sz. 116 - III. Elegia.wav" WAVE
INDEX 01 00:00:00
FILE "04 - BИla BartСk - Concerto for Orchestra Sz. 116 - IV. Intermezzo interotto.wav" WAVE
TRACK 04 AUDIO
TITLE "Concerto for Orchestra Sz. 116 - IV. Intermezzo interotto"
PERFORMER "BИla BartСk"
ISRC Cl@]06000124
INDEX 01 00:00:00
FILE "05 - BИla BartСk - Concerto for Orchestra Sz. 116 - V. Finale.wav" WAVE
TRACK 05 AUDIO
TITLE "Concerto for Orchestra Sz. 116 - V. Finale"
PERFORMER "BИla BartСk"
ISRC Cl@]06000125
INDEX 01 00:00:00
TRACK 06 AUDIO
TITLE "Dance Suite Sz. 77 - I. Moderato"
PERFORMER "BИla BartСk"
ISRC Cl@]06000126
INDEX 00 09:27:14
FILE "06 - BИla BartСk - Dance Suite Sz. 77 - I. Moderato.wav" WAVE
INDEX 01 00:00:00
FILE "07 - BИla BartСk - Dance Suite Sz. 77 - II. Allegro molto.wav" WAVE
TRACK 07 AUDIO
TITLE "Dance Suite Sz. 77 - II. Allegro molto"
PERFORMER "BИla BartСk"
ISRC Cl@]06000127
INDEX 01 00:00:00
FILE "08 - BИla BartСk - Dance Suite Sz. 77 - III. Allegro vivace.wav" WAVE
TRACK 08 AUDIO
TITLE "Dance Suite Sz. 77 - III. Allegro vivace"
PERFORMER "BИla BartСk"
ISRC Cl@]06000128
INDEX 01 00:00:00
FILE "09 - BИla BartСk - Dance Suite Sz. 77 - IV. Molto tranquillo.wav" WAVE
TRACK 09 AUDIO
TITLE "Dance Suite Sz. 77 - IV. Molto tranquillo"
PERFORMER "BИla BartСk"
ISRC Cl@]06000129
INDEX 01 00:00:00
FILE "10 - BИla BartСk - Dance Suite Sz. 77 - V. Comodo.wav" WAVE
TRACK 10 AUDIO
TITLE "Dance Suite Sz. 77 - V. Comodo"
PERFORMER "BИla BartСk"
ISRC Cl@]06000130
INDEX 01 00:00:00
TRACK 11 AUDIO
TITLE "Dance Suite Sz. 77 - VI. Finale (Allegro)"
PERFORMER "BИla BartСk"
ISRC Cl@]06000131
INDEX 00 01:30:27
FILE "11 - BИla BartСk - Dance Suite Sz. 77 - VI. Finale (Allegro).wav" WAVE
INDEX 01 00:00:00
TRACK 12 AUDIO
TITLE "HАry JАnos Suite - I. Prelude. The fairy tale begins"
PERFORMER "ZoltАn KodАly"
ISRC Cl@]06900289
INDEX 00 04:10:29
FILE "12 - ZoltАn KodАly - HАry JАnos Suite - I. Prelude. The fairy tale begins.wav" WAVE
INDEX 01 00:00:00
TRACK 13 AUDIO
TITLE "HАry JАnos Suite - II. Viennese musical clock"
PERFORMER "ZoltАn KodАly"
ISRC Cl@]06900290
INDEX 00 03:41:39
FILE "13 - ZoltАn KodАly - HАry JАnos Suite - II. Viennese musical clock.wav" WAVE
INDEX 01 00:00:00
TRACK 14 AUDIO
TITLE "HАry JАnos Suite - III. Song"
PERFORMER "ZoltАn KodАly"
ISRC Cl@]06900291
INDEX 00 01:59:21
FILE "14 - ZoltАn KodАly - HАry JАnos Suite - III. Song.wav" WAVE
INDEX 01 00:00:00
TRACK 15 AUDIO
TITLE "HАry JАnos Suite - IV. The battle and defeat of Napoleon"
PERFORMER "ZoltАn KodАly"
ISRC Cl@]06900292
INDEX 00 05:17:20
FILE "15 - ZoltАn KodАly - HАry JАnos Suite - IV. The battle and defeat of Napoleon.wav" WAVE
INDEX 01 00:00:00
TRACK 16 AUDIO
TITLE "HАry JАnos Suite - V. Intermezzo"
PERFORMER "ZoltАn KodАly"
ISRC Cl@]06900293
INDEX 00 04:03:24
FILE "16 - ZoltАn KodАly - HАry JАnos Suite - V. Intermezzo.wav" WAVE
INDEX 01 00:00:00
TRACK 17 AUDIO
TITLE "HАry JАnos Suite - VI. Entrance of the emperor and his court"
PERFORMER "ZoltАn KodАly"
ISRC Cl@]06900294
INDEX 00 04:43:10
FILE "17 - ZoltАn KodАly - HАry JАnos Suite - VI. Entrance of the emperor and his court.wav" WAVE
INDEX 01 00:00:00
CD-10
REM GENRE Classical
REM DATE 2009
REM DISCID 0D111314
REM COMMENT "ExactAudioCopy v0.99pb5"
CATALOG 0028948019274
PERFORMER "Various"
TITLE "The Art of Bernard Haitink (disc 10)"
FILE "01 - Igor Stravinsky - Scherzo а la russe.wav" WAVE
TRACK 01 AUDIO
TITLE "Scherzo а la russe"
PERFORMER "Igor Stravinsky"
ISRC Cl@]08811316
INDEX 01 00:00:00
TRACK 02 AUDIO
TITLE "Petrouchka - I. The Shrovetide Fair - The Crowds - The Conjuring-trick"
PERFORMER "Igor Stravinsky"
ISRC Cl@]08801101
INDEX 00 03:38:70
FILE "02 - Igor Stravinsky - Petrouchka - I. The Shrovetide Fair - The Crowds - The Conjuring-trick.wav" WAVE
INDEX 01 00:00:00
TRACK 03 AUDIO
TITLE "Petrouchka - Russian Dance"
PERFORMER "Igor Stravinsky"
ISRC Cl@]08801101
INDEX 00 07:04:17
FILE "03 - Igor Stravinsky - Petrouchka - Russian Dance.wav" WAVE
INDEX 01 00:00:00
FILE "04 - Igor Stravinsky - Petrouchka - III. Petrouchka's Room.wav" WAVE
TRACK 04 AUDIO
TITLE "Petrouchka - III. Petrouchka's Room"
PERFORMER "Igor Stravinsky"
ISRC Cl@]08801102
INDEX 01 00:00:00
FILE "05 - Igor Stravinsky - Petrouchka - IV. The Moor's Room - Dance of the Ballerina.wav" WAVE
TRACK 05 AUDIO
TITLE "Petrouchka - IV. The Moor's Room - Dance of the Ballerina"
PERFORMER "Igor Stravinsky"
ISRC Cl@]08801103
INDEX 01 00:00:00
TRACK 06 AUDIO
TITLE "Petrouchka - V. Waltz (The Ballerina and the Moor)"
PERFORMER "Igor Stravinsky"
ISRC Cl@]08801105
INDEX 00 03:39:44
FILE "06 - Igor Stravinsky - Petrouchka - V. Waltz (The Ballerina and the Moor).wav" WAVE
INDEX 01 00:00:00
FILE "07 - Igor Stravinsky - Petrouchka - VI. The Shrovetide Fair - The Wet-nurses - The Peasant and the Bear - The Merchant and the Gipsies.wav" WAVE
TRACK 07 AUDIO
TITLE "Petrouchka - VI. The Shrovetide Fair - The Wet-nurses - The Peasant and the B..."
PERFORMER "Igor Stravinsky"
ISRC Cl@]08801106
INDEX 01 00:00:00
TRACK 08 AUDIO
TITLE "Le Sacre du printemps - Premiиre partie - L'Adoration de la terre - I. Introd..."
PERFORMER "Igor Stravinsky"
ISRC Cl@]07300037
INDEX 00 13:27:19
FILE "08 - Igor Stravinsky - Le Sacre du printemps - Premiиre partie - L'Adoration de la terre - I. Introduction.wav" WAVE
INDEX 01 00:00:00
TRACK 09 AUDIO
TITLE "Le Sacre du printemps - Premiиre partie - L'Adoration de la terre - II. Les a..."
PERFORMER "Igor Stravinsky"
ISRC Cl@]07300038
INDEX 00 03:35:18
FILE "09 - Igor Stravinsky - Le Sacre du printemps - Premiиre partie - L'Adoration de la terre - II. Les augures printaniers - Danses de ado.wav" WAVE
INDEX 01 00:00:00
FILE "10 - Igor Stravinsky - Le Sacre du printemps - Premiиre partie - L'Adoration de la terre - III. Jeu du rapt.wav" WAVE
TRACK 10 AUDIO
TITLE "Le Sacre du printemps - Premiиre partie - L'Adoration de la terre - III. Jeu ..."
PERFORMER "Igor Stravinsky"
ISRC Cl@]07300039
INDEX 01 00:00:00
FILE "11 - Igor Stravinsky - Le Sacre du printemps - Premiиre partie - L'Adoration de la terre - IV. Rondes printaniиres.wav" WAVE
TRACK 11 AUDIO
TITLE "Le Sacre du printemps - Premiиre partie - L'Adoration de la terre - IV. Ronde..."
PERFORMER "Igor Stravinsky"
ISRC Cl@]07300040
INDEX 01 00:00:00
FILE "12 - Igor Stravinsky - Le Sacre du printemps - Premiиre partie - L'Adoration de la terre - V. Jeux de citйs rivales.wav" WAVE
TRACK 12 AUDIO
TITLE "Le Sacre du printemps - Premiиre partie - L'Adoration de la terre - V. Jeux d..."
PERFORMER "Igor Stravinsky"
ISRC Cl@]07300041
INDEX 01 00:00:00
FILE "13 - Igor Stravinsky - Le Sacre du printemps - Premiиre partie - L'Adoration de la terre - VI. Corиge du sage - Le Sage.wav" WAVE
TRACK 13 AUDIO
TITLE "Le Sacre du printemps - Premiиre partie - L'Adoration de la terre - VI. Corиg..."
PERFORMER "Igor Stravinsky"
ISRC Cl@]07300042
INDEX 01 00:00:00
FILE "14 - Igor Stravinsky - Le Sacre du printemps - Premiиre partie - L'Adoration de la terre - VII. Danse de la terre.wav" WAVE
TRACK 14 AUDIO
TITLE "Le Sacre du printemps - Premiиre partie - L'Adoration de la terre - VII. Dans..."
PERFORMER "Igor Stravinsky"
ISRC Cl@]07300043
INDEX 01 00:00:00
TRACK 15 AUDIO
TITLE "Le Sacre du printemps - Deuxiиme partie- Le Sacrifice - I. Introduction"
PERFORMER "Igor Stravinsky"
ISRC Cl@]07300044
INDEX 00 01:32:53
FILE "15 - Igor Stravinsky - Le Sacre du printemps - Deuxiиme partie- Le Sacrifice - I. Introduction.wav" WAVE
INDEX 01 00:00:00
TRACK 16 AUDIO
TITLE "Le Sacre du printemps - Deuxiиme partie- Le Sacrifice - II. Cercles mystйrie..."
PERFORMER "Igor Stravinsky"
ISRC Cl@]07300045
INDEX 00 04:26:09
FILE "16 - Igor Stravinsky - Le Sacre du printemps - Deuxiиme partie- Le Sacrifice - II. Cercles mystйrieux des adolescentes.wav" WAVE
INDEX 01 00:00:00
FILE "17 - Igor Stravinsky - Le Sacre du printemps - Deuxiиme partie- Le Sacrifice - Glorification d'йlue.wav" WAVE
TRACK 17 AUDIO
TITLE "Le Sacre du printemps - Deuxiиme partie- Le Sacrifice - Glorification d'йlue"
PERFORMER "Igor Stravinsky"
ISRC Cl@]07300046
INDEX 01 00:00:00
FILE "18 - Igor Stravinsky - Le Sacre du printemps - Deuxiиme partie- Le Sacrifice - Йvocation des ancкtres.wav" WAVE
TRACK 18 AUDIO
TITLE "Le Sacre du printemps - Deuxiиme partie- Le Sacrifice - Йvocation des ancкtres"
PERFORMER "Igor Stravinsky"
ISRC Cl@]07300047
INDEX 01 00:00:00
FILE "19 - Igor Stravinsky - Le Sacre du printemps - Deuxiиme partie- Le Sacrifice - Action rituelle des ancкtres.wav" WAVE
TRACK 19 AUDIO
TITLE "Le Sacre du printemps - Deuxiиme partie- Le Sacrifice - Action rituelle des ..."
PERFORMER "Igor Stravinsky"
ISRC Cl@]07300048
INDEX 01 00:00:00
FILE "20 - Igor Stravinsky - Le Sacre du printemps - Deuxiиme partie- Le Sacrifice - Danse sacrale- L'йlue.wav" WAVE
TRACK 20 AUDIO
TITLE "Le Sacre du printemps - Deuxiиme partie- Le Sacrifice - Danse sacrale: L'йlue"
PERFORMER "Igor Stravinsky"
ISRC Cl@]07300049
INDEX 01 00:00:00
Доп. информация:
[teatrix.ru].t10927.torrent 
Торрент: Зарегистрирован [ 2015-12-06 05:27 ] · 2DB4B8332B0930BAB8F398814773C7D504044317

Скачать .torrent

Скачать

34 KB

Статус: проверено
Скачан: 1 раз
Размер: 3.26 GB
terms.php



Быстрый ответ

Имя:

      
Для отправки сообщений необходимо включить JavaScript
Показать сообщения:    

Текущее время: 05-Дек 19:39

Часовой пояс: UTC + 3


Вы можете начинать темы
Вы можете отвечать на сообщения
Вы не можете редактировать свои сообщения
Вы не можете удалять свои сообщения
Вы не можете голосовать в опросах
Вы не можете прикреплять файлы к сообщениям
Вы можете скачивать файлы