(Classical) Wolfgang Amadeus Mozart - The Violin Concertos, Sinfonia concertante in E flat, K.364, Adagio, Rondo, Concertone (Julia Fischer, Yakov Kreizberg / Яков Крейцберг) - 2011, FLAC (image+.cue) lossless


Статистика раздачи [Обновить пиров]
Размер:  899 MB   |    Зарегистрирован:  1 год   |    Скачан:  1 раз
Сидов:  1  [  0 KB/s  ]   Подробная статистика пиров
 
   
 
 
 

[Цитировать]

Wolfgang Amadeus Mozart
The Violin Concertos
Sinfonia concertante in E flat, K.364
Adagio - Rondo - Concertone
Жанр: Classical
Год издания диска: 2011
Издатель (лейбл): PentaTone
Номер по каталогу: PTC 5186 453
Дата записи: 2005-2007
Аудиокодек: FLAC
Тип рипа: image+.cue
Битрейт аудио: lossless
Продолжительность: 3:14:06
Источник: web
Наличие сканов в содержимом раздачи: да
Треклист:
CD1 - Violin Concertos 1, 2 & 5
Violin Concerto No.1 in B flat, K.207
1. I. Allegro moderato
2. II. Adagio
3. III. Presto
Violin Concerto No.2 in D, K.211
4. I. Allegro moderato
5. II. Andante
6. III. Rondeau (Allegro)
Violin Concerto No.5 in A, K.219
7. I. Allegro aperto
8. II. Adagio
9. III. Rondeau (Tempo di menuetto)
CD2 - Violin Concertos 3 & 4, Adagio, Rondo
Violin Concerto No. 3 in G, K.216
1. I. Allegro
2. II. Adagio
3. III. Rondeau
Violin Concerto No. 4 in D, K.218
4. I. Allegro
5. II. Andante cantabile
6. III. Rondeau (Andante grazioso)
7. Adagio for Violin and Orchestra in E, K.261
8. Rondo for Violin and Orchestra in B flat, K.269
CD3 - Sinfornia Concertante, Rondo, Concertone
Sinfornia Concertante in E-Flat Major, K.364
1. I. Allegro Maestoso
2. II. Andante
3. III. Presto
4. Rondo in C Major K.373 (cadenza by Julia Fischer)
Concertone for 2 Violins in C, K.190
5. Allegro Spiritoso
6. Andantino Grazioso
7. Tempo di Menuetto (Vivace)
Исполнители:
Julia Fischer - violin
Pieter-Jan Belder
- harpsichord (K.207 & K.211)
Gordan Nikolic - violin (K.190) / viola (K.364)
Hans Meyer - oboe (K.190)
Herre Jan Stegenga - cello (K.190)
Gordan Nikolic, concert master
Netherlands Chamber Orchestra
Conductor: Yakov Kreizberg
Лог создания рипа
CD1
Exact Audio Copy V0.99 prebeta 3 from 28. July 2007
EAC extraction logfile from 29. January 2011, 13:14
Julia Fischer, Netherlands ChO, Yakov Kreizberg / Mozart - Violinkonzerte 1, 2 & 5
Used drive : ATAPI iHAS422 8 Adapter: 9 ID: 0
Read mode : SecureUtilize accurate stream : YesDefeat audio cache : YesMake use of C2 pointers : No
Read offset correction : 6Overread into Lead-In and Lead-Out : NoFill up missing offset samples with silence : YesDelete leading and trailing silent blocks : NoNull samples used in CRC calculations : YesUsed interface : Installed external ASPI interface
Used output format : Internal WAV RoutinesSample format : 44.100 Hz; 16 Bit; Stereo
TOC of the extracted CD
Track | Start | Length | Start sector | End sector --------------------------------------------------------- 1 | 0:00.00 | 6:51.01 | 0 | 30825 2 | 6:51.01 | 7:54.17 | 30826 | 66392 3 | 14:45.18 | 5:43.58 | 66393 | 92175 4 | 20:29.01 | 7:56.05 | 92176 | 127880 5 | 28:25.06 | 7:22.29 | 127881 | 161059 6 | 35:47.35 | 4:10.48 | 161060 | 179857 7 | 39:58.08 | 9:30.37 | 179858 | 222644 8 | 49:28.45 | 11:34.69 | 222645 | 274763 9 | 61:03.39 | 8:45.07 | 274764 | 314145
Range status and errors
Selected range
Filename F:\Julia Fischer plays Mozart\CD1.wav
Peak level 100.0 % Range quality 100.0 % Copy CRC 99B7F0D9 Copy OK
No errors occurred
AccurateRip summary
Track 1 accurately ripped (confidence 26) [6BF9A3ED]Track 2 accurately ripped (confidence 26) [D93966DB]Track 3 accurately ripped (confidence 27) [4ADB7C6F]Track 4 accurately ripped (confidence 27) [37C75FAE]Track 5 accurately ripped (confidence 27) [4750AFB4]Track 6 accurately ripped (confidence 28) [94B53043]Track 7 accurately ripped (confidence 27) [C3FE8120]Track 8 accurately ripped (confidence 27) [77ADFEAA]Track 9 accurately ripped (confidence 26) [AE3D5DCD]
All tracks accurately ripped
End of status report
CD2
Exact Audio Copy V0.99 prebeta 3 from 28. July 2007
EAC extraction logfile from 29. January 2011, 13:32
Julia Fischer, Yakov Kreizberg & Netherlands Chamber Orchestra / Mozart - Violin Concertos Nos. 3 & 4
Used drive : ATAPI iHAS422 8 Adapter: 9 ID: 0
Read mode : SecureUtilize accurate stream : YesDefeat audio cache : YesMake use of C2 pointers : No
Read offset correction : 6Overread into Lead-In and Lead-Out : NoFill up missing offset samples with silence : YesDelete leading and trailing silent blocks : NoNull samples used in CRC calculations : YesUsed interface : Installed external ASPI interface
Used output format : Internal WAV RoutinesSample format : 44.100 Hz; 16 Bit; Stereo
TOC of the extracted CD
Track | Start | Length | Start sector | End sector --------------------------------------------------------- 1 | 0:00.00 | 9:05.74 | 0 | 40948 2 | 9:05.74 | 8:20.43 | 40949 | 78491 3 | 17:26.42 | 6:17.46 | 78492 | 106812 4 | 23:44.13 | 8:31.41 | 106813 | 145178 5 | 32:15.54 | 7:07.63 | 145179 | 177266 6 | 39:23.42 | 6:56.72 | 177267 | 208538 7 | 46:20.39 | 7:59.00 | 208539 | 244463 8 | 54:19.39 | 6:22.19 | 244464 | 273132
Range status and errors
Selected range
Filename F:\Julia Fischer plays Mozart\CD2.wav
Peak level 88.0 % Range quality 100.0 % Copy CRC F83FCC03 Copy OK
No errors occurred
AccurateRip summary
Track 1 accurately ripped (confidence 45) [F38BBC02]Track 2 accurately ripped (confidence 45) [FD927F67]Track 3 accurately ripped (confidence 45) [61DF56AB]Track 4 accurately ripped (confidence 45) [C71DD91F]Track 5 accurately ripped (confidence 46) [7592A0DA]Track 6 accurately ripped (confidence 45) [FEDA20E9]Track 7 accurately ripped (confidence 46) [68A82A51]Track 8 accurately ripped (confidence 46) [B184491B]
All tracks accurately ripped
End of status report
CD3
Exact Audio Copy V0.99 prebeta 3 from 28. July 2007
EAC extraction logfile from 29. January 2011, 13:42
Julia Fischer & Gordan Nikolic / Mozart - Symphonia Concertante - Pentatone Gold 2007
Used drive : ATAPI iHAS422 8 Adapter: 9 ID: 0
Read mode : SecureUtilize accurate stream : YesDefeat audio cache : YesMake use of C2 pointers : No
Read offset correction : 6Overread into Lead-In and Lead-Out : NoFill up missing offset samples with silence : YesDelete leading and trailing silent blocks : NoNull samples used in CRC calculations : YesUsed interface : Installed external ASPI interface
Used output format : Internal WAV RoutinesSample format : 44.100 Hz; 16 Bit; Stereo
TOC of the extracted CD
Track | Start | Length | Start sector | End sector --------------------------------------------------------- 1 | 0:00.00 | 12:32.03 | 0 | 56402 2 | 12:32.03 | 11:11.15 | 56403 | 106742 3 | 23:43.18 | 6:18.40 | 106743 | 135132 4 | 30:01.58 | 6:03.47 | 135133 | 162404 5 | 36:05.30 | 8:23.58 | 162405 | 200187 6 | 44:29.13 | 10:41.45 | 200188 | 248307 7 | 55:10.58 | 8:23.20 | 248308 | 286052
Range status and errors
Selected range
Filename F:\Julia Fischer plays Mozart\CD3.wav
Peak level 98.2 % Range quality 100.0 % Copy CRC 8CC6C1FA Copy OK
No errors occurred
AccurateRip summary
Track 1 accurately ripped (confidence 25) [1AA90139]Track 2 accurately ripped (confidence 25) [D3E79B85]Track 3 accurately ripped (confidence 25) [D638F1CC]Track 4 accurately ripped (confidence 24) [1479201F]Track 5 accurately ripped (confidence 24) [3419F443]Track 6 accurately ripped (confidence 24) [A0FF8B15]Track 7 accurately ripped (confidence 24) [7385FA95]
All tracks accurately ripped
End of status report
Содержание индексной карты (.CUE)
CD1
REM GENRE ClassicalREM DATE 2006REM DISCID 73105C09REM COMMENT "ExactAudioCopy v0.99pb3"PERFORMER "Julia Fischer, Netherlands ChO, Yakov Kreizberg"TITLE "Mozart - Violinkonzerte 1, 2 & 5"FILE "CD1.ape" WAVE TRACK 01 AUDIO TITLE "Violinkonzert 1 B-Dur KV 207_1 Allegro moderato" PERFORMER "Julia Fischer, Netherlands ChO, Yakov Kreizberg" INDEX 01 00:00:00 TRACK 02 AUDIO TITLE "Violinkonzert 1 B-Dur KV 207_2 Adagio" PERFORMER "Julia Fischer, Netherlands ChO, Yakov Kreizberg" INDEX 01 06:51:01 TRACK 03 AUDIO TITLE "Violinkonzert 1 B-Dur KV 207_3 Presto" PERFORMER "Julia Fischer, Netherlands ChO, Yakov Kreizberg" INDEX 01 14:45:18 TRACK 04 AUDIO TITLE "Violinkonzert 2 D-Dur KV 211_1 Allegro moderato" PERFORMER "Julia Fischer, Netherlands ChO, Yakov Kreizberg" INDEX 00 20:17:32 INDEX 01 20:29:01 TRACK 05 AUDIO TITLE "Violinkonzert 2 D-Dur KV 211_2 Andante" PERFORMER "Julia Fischer, Netherlands ChO, Yakov Kreizberg" INDEX 01 28:25:06 TRACK 06 AUDIO TITLE "Violinkonzert 2 D-Dur KV 211_3 Rondeau (Allegro)" PERFORMER "Julia Fischer, Netherlands ChO, Yakov Kreizberg" INDEX 01 35:47:35 TRACK 07 AUDIO TITLE "Violinkonzert 5 A-Dur KV 219_1 Allegro aperto" PERFORMER "Julia Fischer, Netherlands ChO, Yakov Kreizberg" INDEX 00 39:45:57 INDEX 01 39:58:08 TRACK 08 AUDIO TITLE "Violinkonzert 5 A-Dur KV 219_2 Adagio" PERFORMER "Julia Fischer, Netherlands ChO, Yakov Kreizberg" INDEX 01 49:28:45 TRACK 09 AUDIO TITLE "Violinkonzert 5 A-Dur KV 219_3 Rondeau (Tempo di menuetto)" PERFORMER "Julia Fischer, Netherlands ChO, Yakov Kreizberg" INDEX 01 61:03:39
CD2
REM GENRE ClassicalREM DATE 2005REM DISCID 6F0E3908REM COMMENT "ExactAudioCopy v0.99pb3"PERFORMER "Julia Fischer, Yakov Kreizberg & Netherlands Chamber Orchestra"TITLE "Mozart - Violin Concertos Nos. 3 & 4"FILE "CD2.ape" WAVE TRACK 01 AUDIO TITLE "Violin Concerto No. 3 in G, KV 216 - I. Allegro" PERFORMER "Julia Fischer, Yakov Kreizberg & Netherlands Chamber Orchestra" INDEX 01 00:00:00 TRACK 02 AUDIO TITLE "Violin Concerto No. 3 in G, KV 216 - II. Adagio" PERFORMER "Julia Fischer, Yakov Kreizberg & Netherlands Chamber Orchestra" INDEX 00 09:01:18 INDEX 01 09:05:74 TRACK 03 AUDIO TITLE "Violin Concerto No. 3 in G, KV 216 - III. Rondeau" PERFORMER "Julia Fischer, Yakov Kreizberg & Netherlands Chamber Orchestra" INDEX 01 17:26:42 TRACK 04 AUDIO TITLE "Violin Concerto No. 4 in D, KV 218 - I. Allegro" PERFORMER "Julia Fischer, Yakov Kreizberg & Netherlands Chamber Orchestra" INDEX 00 23:33:46 INDEX 01 23:44:13 TRACK 05 AUDIO TITLE "Violin Concerto No. 4 in D, KV 218 - II. Andante cantabile" PERFORMER "Julia Fischer, Yakov Kreizberg & Netherlands Chamber Orchestra" INDEX 00 32:09:38 INDEX 01 32:15:54 TRACK 06 AUDIO TITLE "Violin Concerto No. 4 in D, KV 218 - III. Rondeau (Andante grazioso)" PERFORMER "Julia Fischer, Yakov Kreizberg & Netherlands Chamber Orchestra" INDEX 01 39:23:42 TRACK 07 AUDIO TITLE "Adagio for Violin and Orchestra in E, KV 261" PERFORMER "Julia Fischer, Yakov Kreizberg & Netherlands Chamber Orchestra" INDEX 00 46:09:36 INDEX 01 46:20:39 TRACK 08 AUDIO TITLE "Rondo for Violin and Orchestra in B flat, KV 269" PERFORMER "Julia Fischer, Yakov Kreizberg & Netherlands Chamber Orchestra" INDEX 00 54:11:63 INDEX 01 54:19:39
CD3
REM GENRE ClassicalREM DATE 2007REM DISCID 530EE607REM COMMENT "ExactAudioCopy v0.99pb3"PERFORMER "Julia Fischer & Gordan Nikolic"TITLE "Mozart - Symphonia Concertante - Pentatone Gold 2007"FILE "CD3.ape" WAVE TRACK 01 AUDIO TITLE "Sinfornia Concertante in E-Flat Major K364 - Allegro Maestoso" PERFORMER "Julia Fischer & Gordan Nikolic" INDEX 01 00:00:00 TRACK 02 AUDIO TITLE "Sinfornia Concertante in E-Flat Major K364 - Andante" PERFORMER "Julia Fischer & Gordan Nikolic" INDEX 01 12:32:03 TRACK 03 AUDIO TITLE "Sinfornia Concertante in E-Flat Major K364 - Presto" PERFORMER "Julia Fischer & Gordan Nikolic" INDEX 01 23:43:18 TRACK 04 AUDIO TITLE "Rondo in C Major K373 (cadenza by Julia Fischer)" PERFORMER "Julia Fischer & Gordan Nikolic" INDEX 00 29:56:52 INDEX 01 30:01:58 TRACK 05 AUDIO TITLE "Concertone for 2 Violins in C K190 - Allegro Spiritoso" PERFORMER "Julia Fischer & Gordan Nikolic" INDEX 00 36:00:20 INDEX 01 36:05:30 TRACK 06 AUDIO TITLE "Concertone for 2 Violins in C K190 - Andantino Grazioso" PERFORMER "Julia Fischer & Gordan Nikolic" INDEX 01 44:29:13 TRACK 07 AUDIO TITLE "Concertone for 2 Violins in C K190 - Tempo di Menuetto (Vivace)" PERFORMER "Julia Fischer & Gordan Nikolic" INDEX 01 55:10:58
Бонусный DVD
[teatrix.ru].t10928.torrent 
Торрент: Зарегистрирован [ 2015-12-06 18:38 ] · BFC4D650376CE69A96EB84D9D0090B0E5C31B66E

Скачать .torrent

Скачать

19 KB

Статус: проверено
Скачан: 1 раз
Размер: 899 MB
terms.php



Быстрый ответ

Имя:

      
Для отправки сообщений необходимо включить JavaScript
Показать сообщения:    

Текущее время: 07-Дек 11:36

Часовой пояс: UTC + 3


Вы можете начинать темы
Вы можете отвечать на сообщения
Вы не можете редактировать свои сообщения
Вы не можете удалять свои сообщения
Вы не можете голосовать в опросах
Вы не можете прикреплять файлы к сообщениям
Вы можете скачивать файлы