Событие (Сергей Лозница) [2015, Бельгия, Нидерланды, документальный, история, хроника, DVDRip-AVC] Sub Eng + Original Rus


Статистика раздачи [Обновить пиров]
Размер:  1.18 GB   |    Зарегистрирован:  11 месяцев   |    Скачан:  8 раз
Сидов:  7  [  0 KB/s  ]   Личеров:  5  [  0 KB/s  ]   Подробная статистика пиров
 
   
 
 

[Цитировать]

Событие
Страна: Бельгия, Нидерланды
Жанр: документальный, история, хроника
Год выпуска: 2015
Продолжительность: 01:10:26
Перевод: не требуется
Cубтитры: английские
Оригинальная аудиодорожка: русский
Режиссер: Сергей Лозница
Описание: Лозница привез в Венецию "Событие" — фильм, целиком построенный на ленинградской хронике путча 1991 года. Режиссер остается верен своей манере, знакомой еще по "Блокаде" и другим работам. Ему неважно, отделяет зрителя от "события" месяц, или полвека, или четверть. Он категорически избегает иллюстративности, ничего не разъясняет, не допускает ни комментариев, ни посторонних визуальных фактур. Вглядывайтесь в изображение, в хронику (разумеется, тщательно отобранную и виртуозно смонтированную) — и вы сами все увидите. Увидите прежде всего антропологию лиц в народной толпе, вышедшей протестовать на Дворцовую площадь: таких лиц сегодня "не делают". Режиссер допускает только один комментарий — музыкальный: вместе с мелодиями из "Лебединого озера", которое транслировали по ТВ в дни путча, усиливается эффект исторической иронии. Неизбежно возникает вопрос: что произошло с этой толпой, с этой страной? Но, несмотря на иронию, сила документа побеждает, и то, что должно выглядеть умершим, ушедшим навсегда, воспринимается реальнее, нежели сама реальность.
(Андрей Плахов)
Доп. информация:
- Робкий русский бунт (Дмитрий Волчек, Радио Свобода)
- «Событие» – это рифма к «Майдану» (Олег Сулькин, Голос Америки)
- Сергей Лозница: Путч 1991 года - это предостережение Майдану (Наталия Королева, Немецкая волна)
- «Событие» Сергея Лозницы: фильм-открытие «Артдокфеста» (Виталий Манский, Meduza)
- Венеция-2015: Майдан 1991 года (Мария Кувшинова, Сеанс)
- В стране черно-белых лебедей (Антон Долин, The New Times)
- В Венеции “Событие” стало событием (Антон Долин, радио Вести FM, Москва)
- «Событие» Сергея Лозницы (Константин Дорошенко, радио Вести, Киев)
Сэмпл: http://sendfile.su/1180721
Качество видео: DVDRip-AVC
Формат видео: MKV
Видео: MPEG4 Video (H264) 552x574->785x574 (4:3) 25fps 2163kbps
Аудио: MPEG Audio 48000Hz stereo 192kbps
Формат субтитров: hardsub (неотключаемые)
Rip by Pirata00

MediaInfo

General
Unique ID : 209703355210963897820711962151679425883 (0x9DC365A9E9E643DA99265BCAF64FFD5B)
Complete name : D:\Sobytie.2015.Sergey.Loznitsa.mkv
Format : Matroska
Format version : Version 2
File size : 1.18 GiB
Duration : 1h 10mn
Overall bit rate : 2 403 Kbps
Encoded date : UTC 2015-12-05 19:36:36
Writing application : mkvmerge v5.8.0 ('No Sleep / Pillow') built on Sep 2 2012 15:37:04
Writing library : libebml v1.2.3 + libmatroska v1.3.0
COMMENT : Encoded by Pirata00
Video
ID : 1
Format : AVC
Format/Info : Advanced Video Codec
Format profile : High@L3.1
Format settings, CABAC : Yes
Format settings, ReFrames : 14 frames
Codec ID : V_MPEG4/ISO/AVC
Duration : 1h 10mn
Bit rate : 2 163 Kbps
Width : 552 pixels
Height : 574 pixels
Display aspect ratio : 4:3
Frame rate mode : Constant
Frame rate : 25.000 fps
Color space : YUV
Chroma subsampling : 4:2:0
Bit depth : 8 bits
Scan type : Progressive
Bits/(Pixel*Frame) : 0.273
Stream size : 1.06 GiB (90%)
Writing library : x264 core 146 r2538 121396c
Encoding settings : cabac=1 / ref=14 / deblock=1:-3:-3 / analyse=0x3:0x133 / me=umh / subme=11 / psy=1 / psy_rd=1.00:0.10 / mixed_ref=1 / me_range=32 / chroma_me=0 / trellis=2 / 8x8dct=1 / cqm=0 / deadzone=21,11 / fast_pskip=0 / chroma_qp_offset=-3 / threads=12 / lookahead_threads=3 / sliced_threads=0 / nr=0 / decimate=0 / interlaced=0 / bluray_compat=0 / constrained_intra=0 / bframes=14 / b_pyramid=2 / b_adapt=2 / b_bias=0 / direct=3 / weightb=1 / open_gop=0 / weightp=2 / keyint=250 / keyint_min=25 / scenecut=40 / intra_refresh=0 / rc_lookahead=90 / rc=crf / mbtree=0 / crf=17.5 / qcomp=0.68 / qpmin=0 / qpmax=69 / qpstep=4 / vbv_maxrate=17500 / vbv_bufsize=17500 / crf_max=0.0 / nal_hrd=none / filler=0 / ip_ratio=1.40 / pb_ratio=1.30 / aq=2:1.00
Default : Yes
Forced : No
Audio
ID : 2
Format : MPEG Audio
Format version : Version 1
Format profile : Layer 2
Codec ID : A_MPEG/L2
Codec ID/Hint : MP2
Duration : 1h 10mn
Bit rate mode : Constant
Bit rate : 192 Kbps
Channel(s) : 2 channels
Sampling rate : 48.0 KHz
Compression mode : Lossy
Delay relative to video : 24ms
Stream size : 96.7 MiB (8%)
Language : Russian
Default : Yes
Forced : No
Menu
00:00:00.000 : en:Chapter 1
00:03:00.400 : en:Chapter 2
00:06:00.400 : en:Chapter 3
00:09:00.400 : en:Chapter 4
00:12:00.400 : en:Chapter 5
00:15:00.400 : en:Chapter 6
00:18:00.400 : en:Chapter 7
00:21:00.400 : en:Chapter 8
00:24:00.400 : en:Chapter 9
00:27:00.400 : en:Chapter 10
00:30:00.400 : en:Chapter 11
00:33:00.400 : en:Chapter 12
00:36:00.400 : en:Chapter 13
00:39:00.400 : en:Chapter 14
00:42:00.400 : en:Chapter 15
00:45:00.400 : en:Chapter 16
00:48:00.400 : en:Chapter 17
00:51:00.400 : en:Chapter 18
00:54:00.400 : en:Chapter 19
00:57:00.400 : en:Chapter 20
01:00:00.400 : en:Chapter 21
01:03:00.400 : en:Chapter 22
01:06:00.400 : en:Chapter 23
01:09:00.400 : en:Chapter 24

Скриншоты

[teatrix.ru].t10929.torrent 
Торрент: Зарегистрирован [ 2015-12-07 05:05 ] · 88C64C68E7DDCB2AB1EA145EDBEB0A22900FF673

Скачать .torrent

Скачать

12 KB

Статус: проверено
Скачан: 8 раз
Размер: 1.18 GB
terms.php



Быстрый ответ

Имя:

      
Для отправки сообщений необходимо включить JavaScript
Показать сообщения:    

Текущее время: 05-Дек 13:34

Часовой пояс: UTC + 3


Вы можете начинать темы
Вы можете отвечать на сообщения
Вы не можете редактировать свои сообщения
Вы не можете удалять свои сообщения
Вы не можете голосовать в опросах
Вы не можете прикреплять файлы к сообщениям
Вы можете скачивать файлы