Мебиус / Moebiuseu (Ким Ки Дук / Kim Ki Duk) [2013, Южная Корея, драма, HDRip] Sub Rus


Статистика раздачи [Обновить пиров]
Размер:  1.45 GB   |    Зарегистрирован:  11 месяцев 26 дней   |    Скачан:  2 раза

Полного источника не было: 1 месяц 1 день

Личеров:  4  [  0 KB/s  ]   Подробная статистика пиров
 
   
 
 
 

[Цитировать]

Мебиус / Moebiuseu Страна: Южная Корея
Жанр: драма
Год выпуска: 2013
Продолжительность: 01:24:40
Перевод: Субтитры (текст статей в интернете)
Cубтитры: русские
Оригинальная аудиодорожка: без разговорной речи
Режиссер: Ким Ки Дук / Kim Ki Duk
В ролях: Чо Чжэ Хён, Со Ён Чжу, Ли Юнь Ву, Ким Чжэ-Хонг, Ким Чжэ Рок.
Описание: Отец, которого ведет его сексуальное желание; сын, страдающий из-за отца, и несчастная мать, чья боль перерастает в трагедию. Фильм Ким Ки Дука «Мебиус» – драматичная история разрушенной семьи.
Фильм-участник внеконкурсной программы Венецианского кинофестиваля (2013).

Исходник - Moebius.2013.1080p.BluRay.DTS.x264-PublicHD из раздачи aoloffline с

Качество видео: HDRip
Формат видео: AVI
Видео: 720x400 (1.80:1), 25 fps, XviD build 50 ~2253 kbps avg, 0.31 bit/pixel
Аудио: 48 kHz, AC3 Dolby Digital, 2/0 (L,R) ch, ~192 kbps
Формат субтитров: softsub (SRT)

MediaInfo

General
Complete name : D:\Public\Moebiuseu - 2013 - Kim Ki Duk (Sub Rus)\Moebiuseu.2013.HDRip.avi
Format : AVI
Format/Info : Audio Video Interleave
File size : 1.45 GiB
Duration : 1h 24mn
Overall bit rate : 2 456 Kbps
Writing application : VirtualDubMod 1.5.10.2 (build 2540/release)
Writing library : VirtualDubMod build 2540/release
Video
ID : 0
Format : MPEG-4 Visual
Format profile : Advanced Simple@L5
Format settings, BVOP : 1
Format settings, QPel : No
Format settings, GMC : No warppoints
Format settings, Matrix : Default (MPEG)
Codec ID : XVID
Codec ID/Hint : XviD
Duration : 1h 24mn
Bit rate : 2 254 Kbps
Width : 720 pixels
Height : 400 pixels
Display aspect ratio : 16:9
Frame rate : 25.000 fps
Color space : YUV
Chroma subsampling : 4:2:0
Bit depth : 8 bits
Scan type : Progressive
Compression mode : Lossy
Bits/(Pixel*Frame) : 0.313
Stream size : 1.33 GiB (92%)
Writing library : XviD 1.2.1 (UTC 2008-12-04)
Audio
ID : 1
Format : AC-3
Format/Info : Audio Coding 3
Mode extension : CM (complete main)
Codec ID : 2000
Duration : 1h 24mn
Bit rate mode : Constant
Bit rate : 192 Kbps
Channel(s) : 2 channels
Channel positions : Front: L R
Sampling rate : 48.0 KHz
Bit depth : 16 bits
Compression mode : Lossy
Stream size : 116 MiB (8%)
Alignment : Split accross interleaves
Interleave, duration : 40 ms (1.00 video frame)
Interleave, preload duration : 500 ms

Скриншот c названием фильма

Скриншоты

[teatrix.ru].t10930.torrent 
Торрент: Зарегистрирован [ 2015-12-07 05:05 ] · 2C74828AF45A23BD0969A709A58C60C28251C2A0

Скачать .torrent

Скачать

15 KB

Статус: проверено
Скачан: 2 раз
Размер: 1.45 GB
terms.php



Быстрый ответ

Имя:

      
Для отправки сообщений необходимо включить JavaScript
Показать сообщения:    

Текущее время: 03-Дек 03:17

Часовой пояс: UTC + 3


Вы можете начинать темы
Вы можете отвечать на сообщения
Вы не можете редактировать свои сообщения
Вы не можете удалять свои сообщения
Вы не можете голосовать в опросах
Вы не можете прикреплять файлы к сообщениям
Вы можете скачивать файлы