Линч / Lynch (One) (блэкЭНДуайт / blackANDwhite) [2007, США, документальный, экспериментальный, DVB] DVO (24 ДОК)


Статистика раздачи [Обновить пиров]
Размер:  1.62 GB   |    Зарегистрирован:  11 месяцев   |    Скачан:  1 раз

Полного источника не было: 4 дня

Личеров:  4  [  0 KB/s  ]   Подробная статистика пиров
 
   
 
 
 

[Цитировать]

Линч
Lynch (One)- Страна: США
Жанр: документальный, экспериментальный
Год выпуска: 2007
Продолжительность: 01:18:31Перевод: Профессиональный (двухголосый закадровый) 24 ДОК
Cубтитры: нет
Режиссер: блэкЭНДуайт / blackANDwhite
В ролях: Дэвид Линч, Кшиштоф Майхжак, Филипп Патела, Вероника Розати
Описание: Фильм дает нам редкую возможность заглянуть в увлекательный внутренний мир человека, создавшего такие визионерские шедевры, как "Голова-ластик", "Малхолланд Драйв", "Синий бархат", "Твин Пикс", "Дикие сердцем", "Человек-слон". Это рассказ о жизни режиссера, о его творчестве и художественном взгляде, о том, как он работал на съемочной площадке фильма "Внутренняя империя".
Доп. информация: "24 ДОК" DVB-S
Участник Munich Film Festival 2007; San Sebastián Film Festival 2007; Vienna International Film Festival 2007; Film and Art Festival Two Riversides 2008.

Качество видео: DVB
Формат видео: MKV
Видео: MPEG Video 2, 720x576@768x576 (4:3), 25 fps, ~2711 kbps avg, 0.261 bit/pixel
Аудио: MPEG Audio 2, 2 ch, 48 kHz, 192 kbps

MediaInfo

ОбщееУникальный идентификатор : 195438972573346240513032208693496396591 (0x93082D4D1D62EB2FB966B85BDDEC3B2F)Полное имя : F:\My Torrents 3\[apreder]Lynch(2007)DVB.mkvФормат : MatroskaВерсия формата : Version 2Размер файла : 1,62 ГбайтПродолжительность : 1 ч. 18 м.Режим общего битрейта : ПеременныйОбщий поток : 2962 Кбит/секНазвание фильма : LynchДата выпуска : 2007-06-23Дата кодирования : UTC 2015-12-06 16:27:34Программа кодирования : mkvmerge v8.6.1 ('Flying') 64bitБиблиотека кодирования : libebml v1.3.3 + libmatroska v1.4.4Attachements : cover.png / cover_small.pngACTOR : David LynchDIRECTOR : blackANDwhiteGENRE : DocumentaryIMDB : tt1032207KEYWORDS : LAW_RATING : 16+
ВидеоИдентификатор : 1Формат : MPEG VideoВерсия формата : Version 2Профиль формата : Main@MainПараметр BVOP формата : ДаПараметр матрицы формата : ВыборочнаяПараметр GOP формата : VariableFormat_Settings_PictureStructure : FrameИдентификатор кодека : V_MPEG2Идентификатор кодека/Информация : MPEG 1 or 2 VideoПродолжительность : 1 ч. 18 м.Вид битрейта : ПеременныйБитрейт : 2711 Кбит/секШирина : 720 пикселейВысота : 576 пикселейСоотношение сторон : 4:3Режим частоты кадров : ПостоянныйЧастота кадров : 25,000 кадров/секСтандарт вещания : PALЦветовое пространство : YUVСубдискретизация насыщенности : 4:2:0Битовая глубина : 8 битТип развёртки : ЧересстрочнаяПорядок развёртки : Верхнее поле первоеМетод сжатия : С потерямиБит/(Пиксели*Кадры) : 0.261Временной код первого кадра : 00:00:00:00Оригинал временного кода : Group of pictures headerРазмер потока : 1,49 Гбайт (92%)Default : ДаForced : Нет
АудиоИдентификатор : 2Формат : MPEG AudioВерсия формата : Version 1Профиль формата : Layer 2Идентификатор кодека : A_MPEG/L2Идентификатор кодека/Подсказка : MP2Продолжительность : 1 ч. 18 м.Вид битрейта : ПостоянныйБитрейт : 192 Кбит/секКаналы : 2 каналаЧастота : 48,0 КГцМетод сжатия : С потерямиРазмер потока : 108 Мбайт (6%)Язык : RussianDefault : ДаForced : Нет

Скриншот c названием фильма

Скриншоты


Резервные скриншоты


[teatrix.ru].t10931.torrent 
Торрент: Зарегистрирован [ 2015-12-07 05:05 ] · 0689B86EDBFC68E36724B4ABBB98BEAE45316551

Скачать .torrent

Скачать

17 KB

Статус: проверено
Скачан: 1 раз
Размер: 1.62 GB
terms.php



Быстрый ответ

Имя:

      
Для отправки сообщений необходимо включить JavaScript
Показать сообщения:    

Текущее время: 05-Дек 17:32

Часовой пояс: UTC + 3


Вы можете начинать темы
Вы можете отвечать на сообщения
Вы не можете редактировать свои сообщения
Вы не можете удалять свои сообщения
Вы не можете голосовать в опросах
Вы не можете прикреплять файлы к сообщениям
Вы можете скачивать файлы