Эйка Катаппа / Eika Katappa (Вернер Шрётер / Werner Schroeter) [1969, ФРГ, драма, экспериментальный, DVDRip] original


Статистика раздачи [Обновить пиров]
Размер:  1.95 GB   |    Зарегистрирован:  11 месяцев   |    Скачан:  1 раз

Полного источника не было: 7 месяцев 2 дня

Личеров:  4  [  0 KB/s  ]   Подробная статистика пиров
 
   
 
 
 

[Цитировать]

Эйка Катаппа / Eika Katappa
Страна: ФРГ
Жанр: драма, экспериментальный
Год выпуска: 1969
Продолжительность: 02:22:52
Перевод: Не требуется
Оригинальная аудиодорожка: мультиязычный
Режиссер: Вернер Шрётер / Werner Schroeter
В ролях: Гизела Трове/Gisela Trowe, Карла Аулаулу/Carla Aulaulu, Розмари Хейникель (Рози-Рози)/Rosemarie Heinikel (Rosy-Rosy), Магдалена Монтесума/Magdalena Montezuma, Аликс Бюхе/Alix Buchen, Рита Бауэр/Rita Bauer, Рене Шёнбер/René Schönberg, Йоахим Бауэр/Joachim Bauer, Камиль Калабрезе/Camille Calabrese, Кнут Кох/Knut Koch, Инго Салто/Ingo Salto, Сигурд Салто/Sigurd Salto, Вернер Шрётер/Werner Schroeter
Описание: Первый полный метр Вернера Шрётера, отмеченный в 1969 году премией Джозефа фон Штернберга на фестивале в Мангейме и отобранный в 1970 году в Двухнедельник режиссёров в Каннах. «Эйка Катаппа» – это коллаж изображений и звуков, которые, вечно повторяясь, лепечут о чистой любви до самой смерти.
«"Эйка Катаппа" – физический ритуал, неукоснительный, простой, но не пуританский. В этом фильме я показываю вещи на расстоянии, чтобы не обманывать зрителя; музыка, которую я использую (прекрасное canto, Катерина Валенте, Пресли), усиливает дистанцию, не только иронией или наивностью, но и достоинством». Вернер Шрётер, беседа с Ноэлем Симсоло, Zoom, № 16, январь – февраль 1973
Пламенная красота
Доп. информация: Файл взят с Карагарги, за что благодарим jonsi.
Разъяснение 1
«Практически все раннее творчество Шретера избегает классических нарративных стратегий, превращая его фильмы в коллажи из странных, чарующих и пугающих образов, обрамленных насыщенным музыкальным сопровождением».
Олег Горяинов. Вернер Шретер: Кинематограф авангарда и(ли) китча
В фильме «Эйка Катаппа» встречается текст на испанском, итальянском и немецком, но это тексты опер и песен, поэтому они приведены без перевода. Аудиальный слой фильма Шрётера – это отдельное пространство, которое размещается скорее в области чувства, чем понимания; таким образом, можно полагать, что перевод не требуется.
Разъяснение 2
Фильм снят на плёнку 16 мм без синхронного звука. После на изображение наложен не только закадровый голос и музыка, но и произведено дублирование, которое зачастую несинхронно изображению. Поэтому во время просмотра не следует удивляться несовпадению произнесенных реплик и артикуляции актрис – так было задумано и исполнено, а с вашим медиа-проигрывателем всё в порядке.

Статьи о Вернере Шрётере

Олег Горяинов. Вернер Шретер: Кинематограф авангарда и(ли) китча
http://cineticle.com/focus/442-werner-schroeter.html
Беседа Мишеля Фуко и Вернера Шрётера
http://cineticle.com/inerviews/897-foucault-et-schroeter.html
Райнер Вернер Фассбиндер. Подтягивание, стойка на руках, сальто-мортале – уверенное приземление
http://seance.ru/blog/nel-regno-di-napoli/
Пламенная красота
http://kinote.info/articles/4074-plamennaya-krasota
Сэмпл: http://multi-up.com/1078200
Качество видео: DVDRip
Формат видео: AVI
Видео: XviD build 50 at 1759 kbps, 0.24 bit/pixel, 624x464 (1.34:1) at 25 fps
Аудио: AC3 Dolby Digital, 192 kbps, 2/0 (L,R) ch, 48,0 kHz

MediaInfo

Формат : AVI
Формат/Информация : Audio Video Interleave
Размер файла : 1,95 Гбайт
Продолжительность : 2 ч. 22 м.
Общий поток : 1958 Кбит/сек
Программа кодирования : VirtualDubMod 1.5.4.1 (build 2178/release)
Библиотека кодирования : VirtualDubMod build 2178/release
Видео
Идентификатор : 0
Формат : MPEG-4 Visual
Профиль формата : Advanced Simple@L5
Параметр BVOP формата : 1
Параметр QPel формата : Нет
Параметр GMC формата : Без точки перехода
Параметр матрицы формата : Выборочная
Идентификатор кодека : XVID
Идентификатор кодека/Подсказка : XviD
Продолжительность : 2 ч. 22 м.
Битрейт : 1759 Кбит/сек
Ширина : 624 пикс.
Высота : 464 пикс.
Соотношение сторон : 4:3
Частота кадров : 25,000 кадр/сек
Цветовое пространство : YUV
Подвыборка цветности : 4:2:0
Битовая глубина : 8 бит
Тип развёртки : Прогрессивная
Метод сжатия : С потерями
Бит/(Пиксели*Кадры) : 0.243
Размер потока : 1,76 Гбайт (90%)
Библиотека кодирования : XviD 1.2.1 (UTC 2008-12-04)
Аудио
Идентификатор : 1
Формат : AC-3
Формат/Информация : Audio Coding 3
Расширение режима : CM (complete main)
Идентификатор кодека : 2000
Продолжительность : 2 ч. 22 м.
Вид битрейта : Постоянный
Битрейт : 192 Кбит/сек
Канал(ы) : 2 канала(ов)
Расположение каналов : Front: L R
Частота : 48,0 КГц
Битовая глубина : 16 бит
Метод сжатия : С потерями
Размер потока : 196 Мбайт (10%)
Выравнивание : Соединение по промежуткам
Продолжительность промежутка : 96 мс. (2,40 видеокадров)
Время предзагрузки промежутка : 96 ms
Язык : German

Скриншот c названием фильма

Скриншоты

[teatrix.ru].t10934.torrent 
Торрент: Зарегистрирован [ 2015-12-07 05:05 ] · 51E9B67575FD752FDBA4A27F3544B5BED23A8326

Скачать .torrent

Скачать

20 KB

Статус: проверено
Скачан: 1 раз
Размер: 1.95 GB
terms.php



Быстрый ответ

Имя:

      
Для отправки сообщений необходимо включить JavaScript
Показать сообщения:    

Текущее время: 05-Дек 05:27

Часовой пояс: UTC + 3


Вы можете начинать темы
Вы можете отвечать на сообщения
Вы не можете редактировать свои сообщения
Вы не можете удалять свои сообщения
Вы не можете голосовать в опросах
Вы не можете прикреплять файлы к сообщениям
Вы можете скачивать файлы