Бойцы / Истребители / Любовь с первого боя / Les combattants / Fighters / Love at First Fight (Тома Кайе / Thomas Cailley) [2014, Франция, романтическая комедия, DVB -> DVD] Original (Fre) + Sub (Rus, Fre)


Статистика раздачи [Обновить пиров]
Размер:  2.26 GB   |    Зарегистрирован:  1 год   |    Скачан:  0 раз

Полного источника не было: Никогда

Личеров:  5  [  0 KB/s  ]   Подробная статистика пиров
 
   
 
 
 

[Цитировать]

Бойцы
Les combattants- Страна: Франция
Жанр: романтическая комедия
Год выпуска: 2014
Продолжительность: 01:33:58Перевод: Субтитры (русский перевод М.Лабори, Éclair Media)
Cубтитры: русские, французские
Оригинальная аудиодорожка: французский
Режиссер: Тома Кайе / Thomas Cailley
В ролях: Адель Энель / Adèle Haenel (Madeleine Beaulieu), Кевин Азаис / Kévin Azaïs (Arnaud Labrède), Антуан Лоран / Antoine Laurent (Manu Labrède), Брижитт Роюан / Brigitte Roüan (Hélène Labrède)
Описание: Жизнь молодого парня по имени Арно течёт тихо и непримечательно. Его родные хотят, чтобы он занимался семейным бизнесом, но он предпочитает размеренный летний отдых с друзьями. Всё меняется, когда он встречает Мадлен. Эта девушка ни дня не может прожить без поиска приключений. Она прыгает, борется, плавает, все время рискует и тянет его за собой. И Арно влюбляется, встревая в одну авантюру за другой. Но как далеко он готов зайти вместе с ней в этой каждодневной борьбе с обыденностью?
Доп. информация: Hot Bird (13.0°E) TV5MONDE Europe DVB-S
Награды: 4 приза Cannes Film Festival 2014 (Приз Международной конфедерации художественного кино C.I.C.A.E., приз ФИПРЕССИ в рамках двухнедельника режиссеров, Приз общества драматических авторов и композиторов SACD за лучший фильм, приз Label Europa Cinemas) и 2 номинации ("Золотая камера", "Квир палм"); 3 премии "Сезар" 2015 (лучший режиссерский дебют, актриса - Adèle Haenel, "Актер-надежда" - Kévin Azaïs) и 6 номинаций; др. награды.

Качество видео: DVB
Формат видео: DVD Video
Видео: MPEG Video 2, 720x576@1024x576 (16:9), 25 fps, ~3190 kbps avg, 0.308 bit/pixel
Аудио: MPEG Audio 2, 2 ch, 48 kHz, 192 kbps - французский
Формат субтитров: prerendered (IDX+SUB)

MediaInfo

Title: [apreder]Les_combattants(2014)DVBSize: 2.26 Gb ( 2 373 232,00 KBytes ) - DVD-5Enabled regions: 1, 2, 3, 4, 5, 6, 7, 8
VTS_01 : Play Length: 01:33:58 Video: PAL 16:9 (720x576) VBR, Auto Letterboxed Audio: Francais (MPEG1, 2 ch) Subtitles: Russian Francais
ОбщееПолное имя : F:\My Torrents 3\[apreder]Les_combattants(2014)DVB\VIDEO_TS\VTS_01_1.VOBФормат : MPEG-PSРазмер файла : 1024 МбайтПродолжительность : 41 м.Режим общего битрейта : ПеременныйОбщий поток : 3450 Кбит/сек
ВидеоИдентификатор : 224 (0xE0)Формат : MPEG VideoВерсия формата : Version 2Профиль формата : Main@MainПараметр BVOP формата : ДаПараметр матрицы формата : ВыборочнаяПараметр GOP формата : VariableFormat_Settings_PictureStructure : FrameПродолжительность : 41 м.Вид битрейта : ПеременныйБитрейт : 3190 Кбит/секШирина : 720 пикселейВысота : 576 пикселейСоотношение сторон : 16:9Частота кадров : 25,000 кадров/секСтандарт вещания : PALЦветовое пространство : YUVСубдискретизация насыщенности : 4:2:0Битовая глубина : 8 битТип развёртки : ЧересстрочнаяПорядок развёртки : Верхнее поле первоеМетод сжатия : С потерямиБит/(Пиксели*Кадры) : 0.308Временной код первого кадра : 00:00:00:00Оригинал временного кода : Group of pictures headerРазмер потока : 947 Мбайт (92%)
АудиоИдентификатор : 192 (0xC0)Формат : MPEG AudioВерсия формата : Version 1Профиль формата : Layer 2Режим : Joint stereoРасширение режима : Intensity Stereo + MS StereoПродолжительность : 41 м.Вид битрейта : ПостоянныйБитрейт : 192 Кбит/секКаналы : 2 каналаЧастота : 48,0 КГцМетод сжатия : С потерямиРазмер потока : 57,0 Мбайт (6%)
Текст #1Идентификатор : 189 (0xBD)-32 (0x20)Формат : RLEФормат/Информация : Run-length encodingРежим смешивания : DVD-VideoПродолжительность : 41 м.Задержка видео : 4 с. 880 мс.
Текст #2Идентификатор : 189 (0xBD)-33 (0x21)Формат : RLEФормат/Информация : Run-length encodingРежим смешивания : DVD-VideoПродолжительность : 41 м.Задержка видео : 4 с. 800 мс.

Скриншот c названием фильма

Скриншоты


Резервные скриншоты


[teatrix.ru].t10935.torrent 
Торрент: Зарегистрирован [ 2015-12-07 05:05 ] · C5159E6EF6FB496DDA8A0689ABC39BC164253D2C

Скачать .torrent

Скачать

12 KB

Статус: проверено
Скачан: 0 раз
Размер: 2.26 GB
terms.php



Быстрый ответ

Имя:

      
Для отправки сообщений необходимо включить JavaScript
Показать сообщения:    

Текущее время: 08-Дек 09:01

Часовой пояс: UTC + 3


Вы можете начинать темы
Вы можете отвечать на сообщения
Вы не можете редактировать свои сообщения
Вы не можете удалять свои сообщения
Вы не можете голосовать в опросах
Вы не можете прикреплять файлы к сообщениям
Вы можете скачивать файлы