Последний сеанс / Dernière séance / Last Screening (Laurent Achard / Лоран Ашар) [2011, Франция, триллер, драма, DVDRip] + Sub Rus + Original Fre


Статистика раздачи [Обновить пиров]
Размер:  701 MB   |    Зарегистрирован:  11 месяцев   |    Скачан:  0 раз

Полного источника не было: Никогда

Личеров:  4  [  0 KB/s  ]   Подробная статистика пиров
 
   
 
 
 

[Цитировать]

Последний сеанс / Dernière séance / Last Screening
Страна: Франция
Жанр: триллер, драма
Год выпуска: 2011
Продолжительность: 01:17:50
Перевод: Субтитры
Cубтитры: русские
Оригинальная аудиодорожка: французский
Режиссер: Laurent Achard / Лоран Ашар
В ролях: Паскаль Серво/Pascal Cervo, Шарлотт Ван Кеммель/Charlotte Van Kemmel, Кароль Роше/Karole Rocher, Остин Морель/Austin Morel, Брижитт Си/Brigitte Sy, Мирей Руссель/Mireille Roussel, Коринн Лаборо/Corinne Lamborot, Ноэль Симсоло/Noël Simsolo, Франсин Бласке/Francine Blasquez, Николя Пиньон/Nicolas Pignon
Описание: «Герой Паскаля Серво Сильвен работает в небольшом киноманском кинотеатре – сам продает билеты, сам же клеит пленку и заряжает кинопроектор. О репертуаре легко составить впечатление по постерам: обязательные для новой французской синефилии "Пленница" Шанталь Акерман и "Последние дни" Гаса Ван Сента, эзотерический "Карпатский гриб" Жан-Клода Бьетта и, наконец, классический "Французский канкан" Жана Ренуара, пересматривать на кинопленке который приходит преданный круг одних и тех же зрителей. Любимый фильм Сильвена – "Женщины, женщины" Поля Веккиали, который он пересматривает в свободное время. Героини Веккиали – неудавшиеся актрисы – жили в окружении портретов кинодив, которыми им так и не суждено было стать. В своем подвале Сильвен окружает себя такими же фотографиями, но к ним он прикрепляет еще и свои трофеи ».
Борис Нелепо
Доп. информация: Перевод – daft-digger, подготовка субтитров – alex-kin.
Перевод фрагмента «Федры» Жана Расина приведен в переводе М. А. Донского.
Файл взят с Карагарги, за что благодарим exvet.
Сэмпл: http://multi-up.com/1077707
Качество видео: DVDRip
Формат видео: AVI
Видео: XviD Final 1.0.3 (build 37) at 1121 kbps, 0.21 bit/pixel, 624x336 (1.86:1) at 25 fps
Аудио: MPEG Layer 3 at 128.00 kbps avg, 2 ch, 48 kHz
Формат субтитров: softsub (SRT)

MediaInfo

Формат : AVI
Формат/Информация : Audio Video Interleave
Размер файла : 701 Мбайт
Продолжительность : 1 ч. 17 м.
Общий поток : 1260 Кбит/сек
Программа кодирования : VirtualDubMod 1.5.10.2 Fr | www.trad-fr.com || (build 2540/release)
Библиотека кодирования : VirtualDubMod build 2540/release
Видео
Идентификатор : 0
Формат : MPEG-4 Visual
Профиль формата : Advanced Simple@L5
Параметр BVOP формата : 2
Параметр QPel формата : Нет
Параметр GMC формата : Без точки перехода
Параметр матрицы формата : Default (H.263)
Режим смешивания : Сжатый битовый поток
Идентификатор кодека : XVID
Идентификатор кодека/Подсказка : XviD
Продолжительность : 1 ч. 17 м.
Битрейт : 1122 Кбит/сек
Ширина : 624 пикс.
Высота : 336 пикс.
Соотношение сторон : 1,857
Частота кадров : 25,000 кадр/сек
Цветовое пространство : YUV
Подвыборка цветности : 4:2:0
Битовая глубина : 8 бит
Тип развёртки : Прогрессивная
Метод сжатия : С потерями
Бит/(Пиксели*Кадры) : 0.214
Размер потока : 625 Мбайт (89%)
Библиотека кодирования : XviD 1.0.3 (UTC 2004-12-20)
Аудио
Идентификатор : 1
Формат : MPEG Audio
Версия формата : Version 1
Профиль формата : Layer 3
Идентификатор кодека : 55
Идентификатор кодека/Подсказка : MP3
Продолжительность : 1 ч. 17 м.
Вид битрейта : Постоянный
Битрейт : 128 Кбит/сек
Канал(ы) : 2 канала(ов)
Частота : 48,0 КГц
Метод сжатия : С потерями
Размер потока : 71,2 Мбайт (10%)
Выравнивание : Соединение по промежуткам
Продолжительность промежутка : 40 мс. (1,00 видеокадр)
Время предзагрузки промежутка : 504 ms

Фрагмент субтитров

1
00:01:16,280 --> 00:01:22,520
ПОСЛЕДНИЙ СЕАНС
2
00:01:27,800 --> 00:01:31,520
Фильм Лорана Ашара
3
00:01:32,640 --> 00:01:36,480
Паскаль Серво
4
00:01:37,500 --> 00:01:39,500
Хорошего вечера.
5
00:01:43,500 --> 00:01:44,880
- Хорошего вечера.
- Хорошего вечера.
6
00:01:47,000 --> 00:01:48,400
Хорошего вечера,
месье Поль.
7
00:01:49,100 --> 00:01:50,500
Здравствуй, Сильвен.
8
00:01:50,750 --> 00:01:52,750
- Так кинотеатр закрывается?
- Конечно, нет.
9
00:01:53,000 --> 00:01:55,000
- Я об этом слышал.
- Это не так.
10
00:01:55,500 --> 00:01:56,640
Вот и хорошо.
11
00:02:02,720 --> 00:02:03,840
Что с вами стряслось?
12
00:02:03,900 --> 00:02:06,760
Не спрашивайте. Упал с лестницы,
когда расставлял книги.
13
00:02:07,920 --> 00:02:09,280
- Вы слишком много читаете, месье Поль.
- Да.
14
00:02:10,840 --> 00:02:12,320
- Доброй ночи, Сильвен.
- Доброй ночи.
15
00:02:24,600 --> 00:02:26,280
"Пленница" Шанталь Акерман
"Французский канкан" Жана Ренуара
16
00:02:26,380 --> 00:02:27,440
"Последние дни" Гаса Ван Сента
17
00:02:27,520 --> 00:02:29,880
"Паровоз "Генерал" Бастера Китона
"Бетти" Клода Шаброля
18
00:02:30,160 --> 00:02:31,860
КИНОТЕАТР "ИМПЕРИЯ"
19
00:09:58,640 --> 00:10:00,790
"Время развлечений" Жака Тати
20
00:10:23,000 --> 00:10:25,375
"Карпатский гриб" Жан-Клода Бьетта

Скриншот c названием фильма

Скриншоты

[teatrix.ru].t10936.torrent 
Торрент: Зарегистрирован [ 2015-12-07 05:05 ] · 3FB2BBE5B4A7B8347076FC568C9F80AACFBD7B29

Скачать .torrent

Скачать

14 KB

Статус: проверено
Скачан: 0 раз
Размер: 701 MB
terms.php



Быстрый ответ

Имя:

      
Для отправки сообщений необходимо включить JavaScript
Показать сообщения:    

Текущее время: 04-Дек 23:24

Часовой пояс: UTC + 3


Вы можете начинать темы
Вы можете отвечать на сообщения
Вы не можете редактировать свои сообщения
Вы не можете удалять свои сообщения
Вы не можете голосовать в опросах
Вы не можете прикреплять файлы к сообщениям
Вы можете скачивать файлы