Задушенный / The Strangling / Kousatsu (Канэто Синдо / Kaneto Shindo) [1979, Япония, драма, DVDRip] Sub Rus Eng


Статистика раздачи [Обновить пиров]
Размер:  1.41 GB   |    Зарегистрирован:  1 год   |    Скачан:  0 раз

Полного источника не было: Никогда

Личеров:  4  [  0 KB/s  ]   Подробная статистика пиров
 
   
 
 
 

[Цитировать]

Задушенный / The Strangling / Kousatsu / 絞殺
Страна: Япония
Жанр: драма
Год выпуска: 1979
Продолжительность: 01:56:07
Перевод 1: Субтитры русские - дед_сто_лет©
Перевод 2: Субтитры английские - scannon & lordretsudo
Оригинальная аудиодорожка: японский
Режиссер: Канэто Синдо / Kaneto Shindo
В ролях: Нобуко ОТОВА, Цутому КАРИБА, Хацуко КАЙДА, Эйдзи ОКАДА, Тайдзи ТОНОЯМА, Хосэй КОМАЦУ, Дайго КУСАНО, Котоэ ХАЦУИ, Акэми НЭГИСИ, Ко НИСИМУРА
Описание: Канэто Синдо продолжает исследовать обнаженные сердца молодых. В семье Кариба случилась трагедия: отец собственными руками задушил любимого сына, мать тоже понимала, что это неизбежно. Как могло такое случится в этом благополучном доме, где всё было устроено для счастья будущего наследника? Как всегда, Канэто Синдо волнует тема инцеста и эдипова комплекса, только трактует он её очень жестоко, резко и порывисто, совсем не так, как в более поздней своей работе Дерево без листьев / Tree without leaves / Rakuyôju / 落葉樹.©
Самые очаровательные сцены фильма раскрывают СНЕЖНУЮ ТЕМУ.
> > > > > > >
Качество видео: DVDRip
Формат видео: AVI
Видео: 720x544 (1.32:1), 23.976 fps, XviD build 50 ~1537 kbps avg, 0.16 bit/pixel
Аудио: 48 kHz, MPEG Layer 3, 2 ch, ~192.00 kbps avg
Формат субтитров: softsub (SRT)
Доп. информация о субтитрах: дед_сто_лет

Пример субтитров

382
00:51:03,994 --> 00:51:09,342
У него была куча денег,
а мне он давал гроши.
383
00:51:09,867 --> 00:51:14,009
Я устроила себе шикарный
ужин, и заснула, как убитая.
384
00:51:14,205 --> 00:51:16,185
Я хотела бесследно исчезнуть.
385
00:51:16,307 --> 00:51:18,787
Но прежде я захотела рассказать тебе.
386
00:51:19,210 --> 00:51:21,451
Исчезнуть? Как это?
387
00:51:21,645 --> 00:51:24,489
- Куда-нибудь.
- Куда же?
388
00:51:26,884 --> 00:51:28,625
Никуда.
389
00:51:28,852 --> 00:51:30,763
Почему просто не убежать?
390
00:51:30,955 --> 00:51:33,265
Некуда бежать.
391
00:51:34,125 --> 00:51:37,004
Вот скотина. Так ему и надо.
392
00:52:03,621 --> 00:52:06,158
Хочешь секса?
393
00:52:07,725 --> 00:52:08,999
Хочу.
394
00:52:09,727 --> 00:52:11,035
Пожалуйста.
395
00:53:11,255 --> 00:53:14,668
Я хотела отдать тебе
свою девственность.
396
00:53:15,326 --> 00:53:17,272
Это неважно.
397
00:53:18,128 --> 00:53:19,698
Я так счастлива.
398
00:53:19,897 --> 00:53:21,308
Я тоже.
399
00:53:21,999 --> 00:53:24,502
У тебя это первый раз?
400
00:53:25,102 --> 00:53:26,206
Да.
401
00:53:27,071 --> 00:53:28,948
Прости.
402
00:53:39,383 --> 00:53:42,728
Я тебя люблю... люблю!
403
00:54:08,479 --> 00:54:11,551
Я уснула?
404
00:54:12,316 --> 00:54:15,126
Да. Замерзла?

MediaInfo

General
Complete name : C:\...\Strangling.Kousatsu(1979)Kaneto.Shindo\Kousatsu(1979)Kaneto.Shindo.avi
Format : AVI
Format/Info : Audio Video Interleave
File size : 1.41 GiB
Duration : 1h 56mn
Overall bit rate : 1 739 Kbps
Writing application : VirtualDubMod 1.5.4.1 (build 2178/release)
Writing library : VirtualDub-MPEG2 build 24600/release
Video
ID : 0
Format : MPEG-4 Visual
Format profile : Advanced Simple@L5
Format settings, BVOP : 1
Format settings, QPel : No
Format settings, GMC : No warppoints
Format settings, Matrix : Custom
Codec ID : XVID
Codec ID/Hint : XviD
Duration : 1h 56mn
Bit rate : 1 538 Kbps
Width : 720 pixels
Height : 544 pixels
Display aspect ratio : 4:3
Frame rate : 23.976 fps
Color space : YUV
Chroma subsampling : 4:2:0
Bit depth : 8 bits
Scan type : Progressive
Compression mode : Lossy
Bits/(Pixel*Frame) : 0.164
Stream size : 1.25 GiB (88%)
Writing library : XviD 1.2.1 (UTC 2008-12-04)
Audio
ID : 1
Format : MPEG Audio
Format version : Version 1
Format profile : Layer 3
Mode : Joint stereo
Mode extension : MS Stereo
Codec ID : 55
Codec ID/Hint : MP3
Duration : 1h 56mn
Bit rate mode : Constant
Bit rate : 192 Kbps
Channel(s) : 2 channels
Sampling rate : 48.0 KHz
Compression mode : Lossy
Stream size : 159 MiB (11%)
Alignment : Aligned on interleaves
Interleave, duration : 42 ms (1.00 video frame)
Interleave, preload duration : 504 ms
Writing library : LAME3.98r
Encoding settings : -m j -V 4 -q 2 -lowpass 18.6 -b 192

Скриншот c названием фильма

Скриншоты

[teatrix.ru].t10937.torrent 
Торрент: Зарегистрирован [ 2015-12-07 05:05 ] · FBE40B6AF8B1B3F8EF0CD1BB6C4372CEB09E0EA5

Скачать .torrent

Скачать

15 KB

Статус: проверено
Скачан: 0 раз
Размер: 1.41 GB
terms.php



Быстрый ответ

Имя:

      
Для отправки сообщений необходимо включить JavaScript
Показать сообщения:    

Текущее время: 11-Дек 03:14

Часовой пояс: UTC + 3


Вы можете начинать темы
Вы можете отвечать на сообщения
Вы не можете редактировать свои сообщения
Вы не можете удалять свои сообщения
Вы не можете голосовать в опросах
Вы не можете прикреплять файлы к сообщениям
Вы можете скачивать файлы