Железный треножник / The Iron Crown / Kanawa (Канэто Синдо / Kaneto Shindo) [1972, Япония, драма, эротика, DVDRip] + Sub Rus Eng


Статистика раздачи [Обновить пиров]
Размер:  1.47 GB   |    Зарегистрирован:  1 год 1 месяц   |    Скачан:  1 раз

Полного источника не было: 2 месяца 26 дней

Личеров:  4  [  0 KB/s  ]   Подробная статистика пиров
 
   
 
 
 

[Цитировать]

Железный треножник / The Iron Crown / Kanawa / 鉄輪
Страна: Япония
Жанр: драма, эротика
Год выпуска: 1972
Продолжительность: 01:31:28
Перевод 1: Субтитры русские -дед_сто_лет
©
Перевод 2: Субтитры английские - lauwlw & kagetsuhisoka
Оригинальная аудиодорожка: японский
Режиссер: Канэто Синдо / Kaneto Shindo
В ролях: Нобуко ОТОВА, Хидэо КАНДЗЭ, Флауэр МЭГ, Рокко ТОРА, Тайдзи ТОНОЯМА, Дайдзиро ХАРАДА, Ацуко КАВАГУТИ, Куниэ ТАДЭ, Кадо НАКАМУРА, Ёсинобу ОГАВА, Кэйдзиро КАТАЯМА, Яити ХОСО
Описание: Авторская интерпретация одноименной пьесы театра Но. Сюжет классической пьесы рассказывает о женщине, которая превратилась в демона, чтобы отомстить мужу, оставившему её ради молодой возлюбленной. Сила женской ревности так сильна, что даже величайший заклинатель Сэймэй Абэ не может победить проклятие. Чтобы спасти жизнь обреченных, он изготавливает их куклы в человеческий рост. Сбившийся с пути демон отступает, но обещает вернуться при первой возможности.©
Этот фильм Синдо стал первым из серии его экранизаций классической японской литературы. Другие два фильма:
Гимн / Hymn / Sanka / 讃歌 - 1972
Сердце / The Heart / Kokoro / 心 - 1973
18+
> > > > > > > > > > Литературный источник
Качество видео: DVDRip
Формат видео: AVI
Видео: 720x544 (1.32:1), 23.976 fps, XviD build 50 ~2092 kbps avg, 0.22 bit/pixel
Аудио: 48 kHz, MPEG Layer 3, 2 ch, ~192.00 kbps avg
Формат субтитров: softsub (SRT)
Доп. информация о субтитрах: дед_сто_лет

Пример субтитров

154
00:42:58,743 --> 00:43:02,919
... я решил обратиться за помощью.
155
00:43:14,625 --> 00:43:17,128
ПРЕДСКАЗАТЕЛЬ
СЭЙМЭЙ АБЭ
156
00:43:17,328 --> 00:43:24,268
Не знаешь ли ты какой-либо
причины для этого?
157
00:43:26,771 --> 00:43:30,378
НЕДАВНО Я ОСТАВИЛ
ПРЕЖНЮЮ ЖЕНУ
158
00:43:30,575 --> 00:43:34,489
И ВЗЯЛ В ЖЕНЫ МОЛОДУЮ ЖЕНЩИНУ
159
00:43:34,879 --> 00:43:44,391
Я не встречался прежде...
160
00:43:45,089 --> 00:43:51,005
... с такой страшной местью.
161
00:43:56,234 --> 00:44:01,115
ЕЁ НЕНАВИСТЬ
ВЫРОСЛА НЕПОМЕРНО
162
00:44:20,625 --> 00:44:24,630
Я так ясно вижу.
Растет сверхъестественная энергия.
163
00:44:38,676 --> 00:44:40,178
Ревность.
164
00:44:44,816 --> 00:44:48,389
Это глубокая ненависть!
165
00:45:02,066 --> 00:45:06,515
Вы стали жертвой
ревности прежней жены.
166
00:45:06,704 --> 00:45:09,412
Ваша новая женщина
тоже находится в опасности.
167
00:45:09,607 --> 00:45:13,521
Чтобы избавиться от заклятия,
вы должны приложить усилия.
168
00:45:17,081 --> 00:45:19,652
До сих пор я работал по обычной цене.
169
00:45:19,817 --> 00:45:25,130
Мне нужна 10% надбавка для
перехода на новый уровень. Согласны?
170
00:45:25,423 --> 00:45:27,130
Приступайте, пожалуйста.
171
00:46:02,160 --> 00:46:03,833
Куда они делись?
172
00:46:26,617 --> 00:46:28,619
Куда ты?
173
00:46:55,880 --> 00:46:57,621
Оставайся здесь.
174
00:46:59,483 --> 00:47:02,555
Пойдем к Сэймэй Абэ.
175
00:47:02,753 --> 00:47:05,563
Попросим защиты у демонов.
176
00:47:05,857 --> 00:47:08,770
Там будет безопаснее всего.
177
00:47:10,561 --> 00:47:12,768
Я не позволю тебе сбежать.

MediaInfo

General
Complete name : C:\...\Kanawa(1972)Kaneto.Shindo\Kanawa(1972)Kaneto.Shindo.avi
Format : AVI
Format/Info : Audio Video Interleave
File size : 1.47 GiB
Duration : 1h 31mn
Overall bit rate : 2 294 Kbps
Video
ID : 0
Format : MPEG-4 Visual
Format profile : Advanced Simple@L5
Format settings, BVOP : 1
Format settings, QPel : No
Format settings, GMC : No warppoints
Format settings, Matrix : Custom
Codec ID : XVID
Codec ID/Hint : XviD
Duration : 1h 31mn
Bit rate : 2 092 Kbps
Width : 720 pixels
Height : 544 pixels
Display aspect ratio : 4:3
Frame rate : 23.976 fps
Color space : YUV
Chroma subsampling : 4:2:0
Bit depth : 8 bits
Scan type : Progressive
Compression mode : Lossy
Bits/(Pixel*Frame) : 0.223
Stream size : 1.34 GiB (91%)
Writing library : XviD 1.2.1 (UTC 2008-12-04)
Audio
ID : 1
Format : MPEG Audio
Format version : Version 1
Format profile : Layer 3
Mode : Joint stereo
Mode extension : MS Stereo
Codec ID : 55
Codec ID/Hint : MP3
Duration : 1h 31mn
Bit rate mode : Constant
Bit rate : 192 Kbps
Channel(s) : 2 channels
Sampling rate : 48.0 KHz
Compression mode : Lossy
Stream size : 126 MiB (8%)
Alignment : Aligned on interleaves
Interleave, duration : 42 ms (1.00 video frame)
Writing library : LAME3.98.2

Скриншот c названием фильма

Скриншоты

[teatrix.ru].t10938.torrent 
Торрент: Зарегистрирован [ 2015-12-07 05:05 ] · D3CDC4D229FD00A381642A03592E5B725F241C42

Скачать .torrent

Скачать

15 KB

Статус: проверено
Скачан: 1 раз
Размер: 1.47 GB
terms.php



Быстрый ответ

Имя:

      
Для отправки сообщений необходимо включить JavaScript
Показать сообщения:    

Текущее время: 20-Янв 16:53

Часовой пояс: UTC + 3


Вы можете начинать темы
Вы можете отвечать на сообщения
Вы не можете редактировать свои сообщения
Вы не можете удалять свои сообщения
Вы не можете голосовать в опросах
Вы не можете прикреплять файлы к сообщениям
Вы можете скачивать файлы