Любовь / Love (Гаспар Ноэ / Gaspar Noé) [2015, Франция, Бельгия, драма, мелодрама, BDRip 720p] MVO (IPTV) + Original Eng


 

[Цитировать]

Любовь / Love
Страна: Франция, Бельгия
Студия: Les Cinemas de la Zone, Rectangle Productions, RT Features, Scope Pictures, Wild Bunch
Жанр: драма, мелодрама
Год выпуска: 2015
Продолжительность: 02:15:15
Перевод: Профессиональный (многоголосый закадровый) IPTV
Cубтитры: нет
Оригинальная аудиодорожка: английский
Режиссер: Гаспар Ноэ / Gaspar Noé
В ролях: Аоми Муйок, Карл Глусман, Клара Кристин, Хуан Сааведра, Гаспар Ноэ, Венсан Мараваль, Бенуа Дебиф, Isabelle Nicou, Стелла Роча
Описание: Любовь вне добра и зла. Любовь — это генетическая потребность. Это дар и проклятие. Любовь — это болезнь, наркотик. Это потеря и обретение себя. Любовь — это самое прекрасное и самое ужасное в нашей жизни. Любовь — это переплетение душ и соединение тел. «Любовь» — это возбуждающая сексуальная мелодрама о парне, девушке и еще одной девушке.

Тип релиза: BDRip 720p
Контейнер: MKV
Видео: MPEG-4 AVC, 4469 Кбит/с, 1280x536, 23,976 fps
Аудио: Rus, AC3, 448 kb/s (6 ch), 48 kHz
Аудио 2: Eng, DTS, 1510 kb/s (6 ch), 48 kHz

MediaInfo

x264 [info]: frame I:992 Avg QP:14.45 size: 95906
x264 [info]: frame P:35360 Avg QP:15.94 size: 45247
x264 [info]: frame B:158212 Avg QP:17.89 size: 18757
x264 [info]: consecutive B-frames: 1.5% 0.7% 1.8% 4.5% 5.3% 79.2% 2.8% 1.1% 3.2%
Format : Matroska
Format version : Version 4 / Version 2
File size : 6.19 GiB
Duration : 2h 15mn
Overall bit rate : 6 556 Kbps
Movie name : Любовь. (Tonik)
Encoded date : UTC 2015-12-05 11:40:11
Writing application : mkvmerge v7.1.0 ('Good Love') 64bit built on Jul 27 2014 13:06:55
Writing library : libebml v1.3.0 + libmatroska v1.4.1
DURATION : 02:15:14.944000000
NUMBER_OF_FRAMES : 253592
NUMBER_OF_BYTES : 454436864
_STATISTICS_WRITING_APP : mkvmerge v7.1.0 ('Good Love') 64bit built on Jul 27 2014 13:06:55
_STATISTICS_WRITING_DATE_UTC : 2015-12-05 11:40:11
_STATISTICS_TAGS : BPS DURATION NUMBER_OF_FRAMES NUMBER_OF_BYTES
Video
ID : 1
Format : AVC
Format/Info : Advanced Video Codec
Format profile : High@L4.1
Format settings, CABAC : Yes
Format settings, ReFrames : 12 frames
Codec ID : V_MPEG4/ISO/AVC
Duration : 2h 15mn
Bit rate : 4 469 Kbps
Width : 1 280 pixels
Height : 536 pixels
Display aspect ratio : 2.40:1
Frame rate mode : Constant
Frame rate : 23.976 fps
Color space : YUV
Chroma subsampling : 4:2:0
Bit depth : 8 bits
Scan type : Progressive
Bits/(Pixel*Frame) : 0.272
Stream size : 4.22 GiB (68%)
Title : Murtini@EPiC
Writing library : x264 core 146 r2538 121396c
Encoding settings : cabac=1 / ref=12 / deblock=1:-3:-3 / analyse=0x3:0x133 / me=umh / subme=11 / psy=1 / psy_rd=1.05:0.10 / mixed_ref=1 / me_range=32 / chroma_me=1 / trellis=2 / 8x8dct=1 / cqm=0 / deadzone=21,11 / fast_pskip=0 / chroma_qp_offset=-4 / threads=6 / lookahead_threads=1 / sliced_threads=0 / nr=0 / decimate=1 / interlaced=0 / bluray_compat=0 / constrained_intra=0 / bframes=8 / b_pyramid=2 / b_adapt=2 / b_bias=0 / direct=1 / weightb=1 / open_gop=0 / weightp=2 / keyint=230 / keyint_min=21 / scenecut=40 / intra_refresh=0 / rc_lookahead=60 / rc=crf / mbtree=0 / crf=18.0 / qcomp=0.70 / qpmin=0 / qpmax=69 / qpstep=4 / vbv_maxrate=30000 / vbv_bufsize=40000 / crf_max=0.0 / nal_hrd=none / filler=0 / ip_ratio=1.35 / pb_ratio=1.25 / aq=2:0.90
Language : English
Default : Yes
Forced : No
_STATISTICS_WRITING_APP : mkvmerge v7.1.0 ('Good Love') 64bit built on Jul 27 2014 13:06:55
_STATISTICS_WRITING_DATE_UTC : 2015-12-05 11:40:11
_STATISTICS_TAGS : BPS DURATION NUMBER_OF_FRAMES NUMBER_OF_BYTES
DURATION : 02:15:14.940000000
NUMBER_OF_FRAMES : 194564
NUMBER_OF_BYTES : 4662619203
Audio #1
ID : 2
Format : AC-3
Format/Info : Audio Coding 3
Mode extension : CM (complete main)
Format settings, Endianness : Big
Codec ID : A_AC3
Duration : 2h 15mn
Bit rate mode : Constant
Bit rate : 448 Kbps
Channel(s) : 6 channels
Channel positions : Front: L C R, Side: L R, LFE
Sampling rate : 48.0 KHz
Bit depth : 16 bits
Compression mode : Lossy
Stream size : 433 MiB (7%)
Title : IPTV
Language : Russian
Default : Yes
Forced : No
Audio #2
ID : 3
Format : DTS
Format/Info : Digital Theater Systems
Mode : 16
Format settings, Endianness : Big
Codec ID : A_DTS
Duration : 2h 15mn
Bit rate mode : Constant
Bit rate : 1 509 Kbps
Channel(s) : 6 channels
Channel positions : Front: L C R, Side: L R, LFE
Sampling rate : 48.0 KHz
Bit depth : 24 bits
Compression mode : Lossy
Stream size : 1.43 GiB (23%)
Language : English
Default : No
Forced : No
Menu
00:00:00.000 : en:00:00:00.000
00:08:17.455 : en:00:08:17.455
00:24:28.884 : en:00:24:28.884
00:48:29.490 : en:00:48:29.490
01:12:18.417 : en:01:12:18.417
01:34:09.519 : en:01:34:09.519
01:53:43.275 : en:01:53:43.275
02:10:22.648 : en:02:10:22.648

Скриншоты




Показать сообщения:    

Текущее время: 04-Дек 11:14

Часовой пояс: UTC + 3


Вы не можете начинать темы
Вы не можете отвечать на сообщения
Вы не можете редактировать свои сообщения
Вы не можете удалять свои сообщения
Вы не можете голосовать в опросах
Вы не можете прикреплять файлы к сообщениям
Вы не можете скачивать файлы