Перед дождем / Before the Rain (Милчо Манчевски / Milcho Manchevski) [1994, Великобритания, Македония, Франция, драма, HDTV 1080i] MVO


 

[Цитировать]

Перед дождем / Before the Rain
Страна: Великобритания, Македония, Франция
Жанр: драма
Год выпуска: 1994
Продолжительность: 01:48:25
Перевод: Профессиональный (многоголосый закадровый)
Cубтитры: нет
Оригинальная аудиодорожка: нет
Режиссер: Милчо Манчевски / Milcho Manchevski
В ролях: Кэтрин Картлидж /Katrin Cartlidge/, Раде Сербеджиа /Rade Sherbedgia/, Грегуар Колен /Gregoire Colin/, Лабина Митевска /Labina Mitevska/, Джей Вильерс /Jay Villiers/, Филлида Лоу /Phyllida Law/, Деян Велков /Dejan Velkov/, Борис Делчевски /Boris Delcevski/, Йосиф Йосифовски /Josif Josifovski/, Сильвия Стояновска /Silvija Stojanovska/
Описание: Главным героем можно условно назвать фотографа, возвращающегося в родную деревню после долгих лет скитаний по горячим точкам планеты. Он не может принять новой реальности ненависти и кровной мести между людьми, с которыми когда-то жил, ходил в школу, играл.
Доп. информация:


Тип релиза: HDTV 1080i | sample
Контейнер: MKV
Видео: H.264/AVC, 1920x1080, 16:9, 25.00fps, 7628 Kbps
Аудио: Russian, MP2 2.0, 48 kHz, 192 kbps

MediaInfo

General
Unique ID                                : 214982686628025537805441986556955449472 (0xA1BC28CC7BD1C18BA4BA997D3EE7D880)
Complete name                            : Before the Rain 1994 HTDV 1080i.mkv
Format                                   : Matroska
Format version                           : Version 4 / Version 2
File size                                : 6.04 GiB
Duration                                 : 1h 48mn
Overall bit rate                         : 7 979 Kbps
Movie name                               : Before the Rain (1994)
Encoded date                             : UTC 2015-12-04 16:16:01
Writing application                      : mkvmerge v8.1.0 ('Psychedelic Postcard') 64bit
Writing library                          : libebml v1.3.1 + libmatroska v1.4.2
Video
ID                                       : 1
Format                                   : AVC
Format/Info                              : Advanced Video Codec
Format profile                           : High@L4.0
Format settings, CABAC                   : Yes
Format settings, ReFrames                : 3 frames
Format settings, GOP                     : M=4, N=28
Codec ID                                 : V_MPEG4/ISO/AVC
Duration                                 : 1h 48mn
Bit rate                                 : 7 628 Kbps
Width                                    : 1 920 pixels
Height                                   : 1 080 pixels
Display aspect ratio                     : 16:9
Frame rate mode                          : Constant
Frame rate                               : 25.000 fps
Standard                                 : Component
Color space                              : YUV
Chroma subsampling                       : 4:2:0
Bit depth                                : 8 bits
Scan type                                : Interlaced
Scan order                               : Top Field First
Bits/(Pixel*Frame)                       : 0.147
Stream size                              : 5.78 GiB (96%)
Default                                  : No
Forced                                   : No
Color primaries                          : BT.709
Transfer characteristics                 : BT.709
Matrix coefficients                      : BT.709
Color range                              : Limited
DURATION                                 : 01:48:25.160000000
NUMBER_OF_FRAMES                         : 162629
NUMBER_OF_BYTES                          : 6329970078
_STATISTICS_WRITING_APP                  : mkvmerge v8.1.0 ('Psychedelic Postcard') 64bit
_STATISTICS_WRITING_DATE_UTC             : 2015-12-04 16:16:01
_STATISTICS_TAGS                         : BPS DURATION NUMBER_OF_FRAMES NUMBER_OF_BYTES
Audio
ID                                       : 2
Format                                   : MPEG Audio
Format version                           : Version 1
Format profile                           : Layer 2
Codec ID                                 : A_MPEG/L2
Codec ID/Hint                            : MP2
Duration                                 : 1h 48mn
Bit rate mode                            : Constant
Bit rate                                 : 192 Kbps
Channel(s)                               : 2 channels
Sampling rate                            : 48.0 KHz
Compression mode                         : Lossy
Stream size                              : 149 MiB (2%)
Language                                 : Russian
Default                                  : Yes
Forced                                   : No
DURATION                                 : 01:48:25.152000000
NUMBER_OF_FRAMES                         : 271048
NUMBER_OF_BYTES                          : 156123648
_STATISTICS_WRITING_APP                  : mkvmerge v8.1.0 ('Psychedelic Postcard') 64bit
_STATISTICS_WRITING_DATE_UTC             : 2015-12-04 16:16:01
_STATISTICS_TAGS                         : BPS DURATION NUMBER_OF_FRAMES NUMBER_OF_BYTES

Скриншоты




Показать сообщения:    

Текущее время: 08-Дек 03:08

Часовой пояс: UTC + 3


Вы не можете начинать темы
Вы не можете отвечать на сообщения
Вы не можете редактировать свои сообщения
Вы не можете удалять свои сообщения
Вы не можете голосовать в опросах
Вы не можете прикреплять файлы к сообщениям
Вы не можете скачивать файлы