Звери дикого Юга / Beasts of the Southern Wild (Бен Зайтлин / Benh Zeitlin) [2012, США, драма, фэнтези, BDRip 720p] MVO (R5) + Original (Eng) + Sub (Rus, Eng)


 

[Цитировать]

Звери дикого Юга / Beasts of the Southern Wild
«Воображение - магия»
- Страна: США
Жанр: драма, фэнтези
Год выпуска: 2012
Продолжительность: 01:33:20-Перевод: Профессиональный (многоголосый, закадровый) - R5
Оригинальная аудиодорожка: English
Cубтитры: Русские (полные 2 вида - Groby, НТВ+), English (full + full SDH)
Навигация по главам: присутствует - 24 глав-Режиссер: Бен Зайтлин / Benh Zeitlin
В ролях: Куавенжаней Уоллис, Дуайт Генри, Леви Истерли, Лоуелл Лэндис, Памела Харпер, Джина Монтанна, Эмбер Генри, Джоншел Александр, Николас Кларк, Джозеф Браун-Описание: Шестилетняя Хашпаппи живет с отцом Винком в общине на краю мира. Они проводят свои дни, плавая в поисках рыбы в некоем подобии лодки, сделанной из остова пикапа. И пусть Винк суровый отец, зато его дочь будет подготовлена к выживанию в одиночку, когда его не станет. Однажды Винка скашивает непонятная болезнь, а природа сходит с ума: тают ледники, поднимается вода, появляется армия доисторических животных. Здоровье Винка все хуже, и Хашпаппи решает отправиться на поиски своей матери…-
Download sample-Качество видео: BDRip 720p | исх. BDRemux 1080p - thx: kinozal
Формат: MKV-Видео: 1 280x694 (1.85:1), 23.976 fps, H.264, 13271.86 kb/s, 0.610 bit/pixel
Аудио №1: 48.0 kHz, AC3 Dolby Digital, 3/2 (L,C,R,l,r) + LFE ch, ~448 kbps | Профессиональный (многоголосый, закадровый) - R5
Аудио №2: 48.0 kHz, AC3 Dolby Digital, 3/2 (L,C,R,l,r) + LFE ch, ~640 kbps | English
Субтитры №1: Русские (полные НТВ+) | *.srt
Субтитры №2: Русские (полные Groby) | *.srt
Субтитры №3: English (full) | *.srt
Субтитры №4: English (full SDH) | *.srt-

MediaInfo

General
Unique ID : 195069763130616032240021046387918583706 (0x92C111DECA9CFBA7AAE2CD84C571379A)
Complete name : D:\Фильмы\Рипы\Beasts of the Southern Wild.2012.BDRip 720p.eFK tRuAVC.mkv
Format : Matroska
Format version : Version 4 / Version 2
File size : 9.36 GiB
Duration : 1h 33mn
Overall bit rate : 14.4 Mbps
Movie name : Звери дикого Юга / Beasts of the Southern Wild (2012) - Release
Encoded date : UTC 2015-12-03 15:34:16
Writing application : mkvmerge v7.6.0 ('Garden of Dreams') 64bit built on Feb 8 2015 13:04:34
Writing library : libebml v1.3.1 + libmatroska v1.4.2
Attachements : cover.png
DURATION : 01:25:52.438000000
NUMBER_OF_FRAMES : 721
NUMBER_OF_BYTES : 24382
_STATISTICS_WRITING_APP : mkvmerge v7.6.0 ('Garden of Dreams') 64bit built on Feb 8 2015 13:04:34
_STATISTICS_WRITING_DATE_UT : 2015-12-03 15:34:16
_STATISTICS_TAGS : BPS DURATION NUMBER_OF_FRAMES NUMBER_OF_BYTES
Video
ID : 1
Format : AVC
Format/Info : Advanced Video Codec
Format profile : High@L4.1
Format settings, CABAC : Yes
Format settings, ReFrames : 8 frames
Codec ID : V_MPEG4/ISO/AVC
Duration : 1h 33mn
Bit rate : 13.0 Mbps
Width : 1 280 pixels
Height : 694 pixels
Display aspect ratio : 1.85:1
Frame rate mode : Constant
Frame rate : 23.976 fps
Color space : YUV
Chroma subsampling : 4:2:0
Bit depth : 8 bits
Scan type : Progressive
Bits/(Pixel*Frame) : 0.610
Stream size : 8.47 GiB (90%)
Title : eFK tRuAVC
Writing library : x264 core 148 r2638kMod 7599210
Encoding settings : cabac=1 / ref=8 / deblock=1:-3:-3 / analyse=0x3:0x113 / me=umh / subme=11 / psy=1 / fade_compensate=0.00 / psy_rd=0.95:0.00 / mixed_ref=1 / me_range=48 / chroma_me=1 / trellis=2 / 8x8dct=1 / cqm=0 / deadzone=21,11 / fast_pskip=0 / chroma_qp_offset=-2 / threads=12 / lookahead_threads=3 / sliced_threads=0 / nr=0 / decimate=1 / interlaced=0 / bluray_compat=0 / constrained_intra=0 / fgo=0 / bframes=16 / b_pyramid=2 / b_adapt=2 / b_bias=0 / direct=3 / weightb=1 / open_gop=0 / weightp=2 / keyint=250 / keyint_min=23 / scenecut=40 / intra_refresh=0 / rc_lookahead=60 / rc=crf / mbtree=0 / crf=17.8000 / qcomp=0.60 / qpmin=0 / qpmax=69 / qpstep=4 / vbv_maxrate=62500 / vbv_bufsize=78125 / crf_max=0.0 / nal_hrd=none / filler=0 / ip_ratio=1.40 / pb_ratio=1.30 / aq=1:0.75
Language : English
Default : Yes
Forced : No
Color range : Limited
Color primaries : BT.709
Transfer characteristics : BT.709
Matrix coefficients : BT.709
DURATION : 01:33:19.594000000
NUMBER_OF_FRAMES : 134256
NUMBER_OF_BYTES : 9289626885
_STATISTICS_WRITING_APP : mkvmerge v7.6.0 ('Garden of Dreams') 64bit built on Feb 8 2015 13:04:34
_STATISTICS_WRITING_DATE_UT : 2015-12-03 15:34:16
_STATISTICS_TAGS : BPS DURATION NUMBER_OF_FRAMES NUMBER_OF_BYTES
Audio #1
ID : 2
Format : AC-3
Format/Info : Audio Coding 3
Mode extension : CM (complete main)
Format settings, Endianness : Big
Codec ID : A_AC3
Duration : 1h 33mn
Bit rate mode : Constant
Bit rate : 448 Kbps
Channel(s) : 6 channels
Channel positions : Front: L C R, Side: L R, LFE
Sampling rate : 48.0 KHz
Compression mode : Lossy
Delay relative to video : 15s 300ms
Stream size : 299 MiB (3%)
Title : Профессиональный (многоголосый, закадровый) - R5
Language : Russian
Default : Yes
Forced : Yes
Audio #2
ID : 3
Format : AC-3
Format/Info : Audio Coding 3
Mode extension : CM (complete main)
Format settings, Endianness : Big
Codec ID : A_AC3
Duration : 1h 33mn
Bit rate mode : Constant
Bit rate : 640 Kbps
Channel(s) : 6 channels
Channel positions : Front: L C R, Side: L R, LFE
Sampling rate : 48.0 KHz
Compression mode : Lossy
Stream size : 427 MiB (4%)
Language : English
Default : No
Forced : No
Text #1
ID : 4
Format : UTF-8
Codec ID : S_TEXT/UTF8
Codec ID/Info : UTF-8 Plain Text
Title : Русские (полные НТВ+)
Language : Russian
Default : No
Forced : No
Text #2
ID : 5
Format : UTF-8
Codec ID : S_TEXT/UTF8
Codec ID/Info : UTF-8 Plain Text
Title : Русские (полные Groby)
Language : Russian
Default : No
Forced : No
Text #3
ID : 6
Format : UTF-8
Codec ID : S_TEXT/UTF8
Codec ID/Info : UTF-8 Plain Text
Title : full
Language : English
Default : No
Forced : No
Text #4
ID : 7
Format : UTF-8
Codec ID : S_TEXT/UTF8
Codec ID/Info : UTF-8 Plain Text
Title : full SDH
Language : English
Default : No
Forced : No
Menu
00:00:00.000 : en:00:00:00.000
00:04:02.951 : en:00:04:02.951
00:08:15.453 : en:00:08:15.453
00:12:39.050 : en:00:12:39.050
00:16:14.432 : en:00:16:14.432
00:19:55.903 : en:00:19:55.903
00:24:01.315 : en:00:24:01.315
00:27:47.082 : en:00:27:47.082
00:30:34.041 : en:00:30:34.041
00:33:47.567 : en:00:33:47.567
00:38:00.862 : en:00:38:00.862
00:43:25.937 : en:00:43:25.937
00:46:23.030 : en:00:46:23.030
00:50:59.348 : en:00:50:59.348
00:53:35.504 : en:00:53:35.504
01:00:00.680 : en:01:00:00.680
01:01:56.421 : en:01:01:56.421
01:06:22.604 : en:01:06:22.604
01:09:16.778 : en:01:09:16.778
01:13:32.533 : en:01:13:32.533
01:19:54.039 : en:01:19:54.039
01:22:44.793 : en:01:22:44.793
01:25:37.799 : en:01:25:37.799
01:27:52.934 : en:01:27:52.934

x264 log

x264 [info]: frame I:627 Avg QP:17.15 size:139682
x264 [info]: frame P:27834 Avg QP:19.31 size: 90522
x264 [info]: frame B:105795 Avg QP:21.55 size: 63164
x264 [info]: consecutive B-frames: 2.3% 2.1% 8.3% 11.3% 13.5% 50.0% 2.9% 0.7% 1.0% 1.3% 1.7% 2.3% 0.6% 0.3% 0.4% 0.4% 1.0%
x264 [info]: mb I I16..4: 8.5% 80.8% 10.7%
x264 [info]: mb P I16..4: 0.5% 40.1% 1.6% P16..4: 19.7% 23.3% 7.2% 0.0% 0.0% skip: 7.6%
x264 [info]: mb B I16..4: 0.1% 17.0% 0.3% B16..8: 32.8% 19.6% 5.1% direct:10.1% skip:15.1% L0:43.6% L1:44.5% BI:11.9%
x264 [info]: 8x8 transform intra:96.4% inter:66.4%
x264 [info]: direct mvs spatial:100.0% temporal:0.0%
x264 [info]: coded y,uvDC,uvAC intra: 97.8% 90.8% 73.4% inter: 58.1% 34.8% 8.8%
x264 [info]: i16 v,h,dc,p: 54% 12% 11% 23%
x264 [info]: i8 v,h,dc,ddl,ddr,vr,hd,vl,hu: 8% 7% 13% 10% 13% 12% 12% 11% 13%
x264 [info]: i4 v,h,dc,ddl,ddr,vr,hd,vl,hu: 19% 5% 6% 9% 14% 12% 12% 10% 12%
x264 [info]: i8c dc,h,v,p: 50% 16% 13% 20%
x264 [info]: Weighted P-Frames: Y:6.3% UV:4.3%
x264 [info]: ref P L0: 39.1% 7.6% 18.9% 9.7% 7.7% 6.1% 5.5% 4.2% 1.1% 0.1%
x264 [info]: ref B L0: 71.6% 12.8% 7.0% 3.7% 2.8% 1.5% 0.6%
x264 [info]: ref B L1: 91.2% 8.8%
x264 [info]: kb/s:13271.86
x264 [total]: encoded 134256 frames, 4.85 fps, 13271.86 kb/s, duration 7:41:06.09

Comparison

Source

Encode



Показать сообщения:    

Текущее время: 03-Дек 18:43

Часовой пояс: UTC + 3


Вы не можете начинать темы
Вы не можете отвечать на сообщения
Вы не можете редактировать свои сообщения
Вы не можете удалять свои сообщения
Вы не можете голосовать в опросах
Вы не можете прикреплять файлы к сообщениям
Вы не можете скачивать файлы