Милу в мае / Milou en mai (Луи Маль / Louis Malle) [1990, Франция, Италия, драма, комедия, BDRemux 1080p] MVO + DVO + Sub (Rus, Eng) + Original Fre


 

[Цитировать]

Милу в мае / Milou en mai
Страна: Франция, Италия
Жанр: драма, комедия
Год выпуска: 1990
Продолжительность: 01:46:47
Перевод: Профессиональный (многоголосый закадровый) Cinema Prestige
Перевод: Профессиональный (двухголосый закадровый) студия "Пифагор"
Cубтитры: русские, английские
Оригинальная аудиодорожка: французский-Режиссер: Луи Маль / Louis Malle
В ролях: Миу-Миу, Мишель Пикколи, Мишель Дюшоссуа, Полетт Дюбо, Бруно Каретт, Харриет Уолтер, Жанна Арри, Мартина Готье, Рено Дэннер, Франсуа Берлеан, Доминик Блан
Описание: Многочисленное семейство собирается в провинциальном поместье на похороны бабушки. Тело отошедшей в лучший мир старушки лежит в библиотеке (погребение отодвигается из-за забастовки могильщиков), а нетерпеливая родня приступает к дележу наследства…
IMDb || КиноПоиск-Тип релиза: BDRemux 1080p
Контейнер: MKV
Видео: MPEG-4 AVC Video, 1920x1080 at 24 fps, 29999 kbps
Аудио#1: Russian: 48 kHz, AC3, 2.0 ch, 192 kbps
Аудио#2: Russian: 48 kHz, AC3, 1.0 ch, 192 kbps
Аудио#3: French: 48 kHz, FLAC, 2.0 ch, 697 kbps
Формат субтитров: softsub (SRT)
Сэмпл

Дополнительно

За оригинальный диск спасибо kento.
За перевод студии "Пифагор" спасибо клубу Артхаус.

MediaInfo

General
Complete name : Milou en mai.1990.BDRemux.rutracker.mkv
Format : Matroska
Format version : Version 2
File size : 23.2 GiB
Duration : 1h 46mn
Overall bit rate mode : Variable
Overall bit rate : 31.1 Mbps
Movie name : Release for RuTracker
Writing application : mkvmerge v5.0.1 ('Es ist Sommer') built on Nov 6 2011 16:23:40
Writing library : libebml v1.2.2 + libmatroska v1.3.0
Video
ID : 1
Format : AVC
Format/Info : Advanced Video Codec
Format profile : High@L4.1
Format settings, CABAC : Yes
Format settings, ReFrames : 4 frames
Format settings, GOP : M=3, N=24
Muxing mode : Container profile=Unknown@0.0
Codec ID : V_MPEG4/ISO/AVC
Duration : 1h 46mn
Bit rate mode : Variable
Maximum bit rate : 35.0 Mbps
Width : 1 920 pixels
Height : 1 080 pixels
Display aspect ratio : 16:9
Frame rate mode : Constant
Frame rate : 24.000 fps
Standard : NTSC
Color space : YUV
Chroma subsampling : 4:2:0
Bit depth : 8 bits
Scan type : Progressive
Title : Milou en mai.1990.BDRemux.rutracker
Language : French
Default : Yes
Forced : No
Color primaries : BT.709
Transfer characteristics : BT.709
Matrix coefficients : BT.709
Audio #1
ID : 2
Format : AC-3
Format/Info : Audio Coding 3
Mode extension : CM (complete main)
Format settings, Endianness : Big
Codec ID : A_AC3
Duration : 1h 46mn
Bit rate mode : Constant
Bit rate : 192 Kbps
Channel(s) : 2 channels
Channel positions : Front: L R
Sampling rate : 48.0 KHz
Bit depth : 16 bits
Compression mode : Lossy
Stream size : 147 MiB (1%)
Title : Cinema Prestige
Language : Russian
Default : Yes
Forced : No
Audio #2
ID : 3
Format : AC-3
Format/Info : Audio Coding 3
Mode extension : CM (complete main)
Format settings, Endianness : Big
Codec ID : A_AC3
Duration : 1h 46mn
Bit rate mode : Constant
Bit rate : 192 Kbps
Channel(s) : 1 channel
Channel positions : Front: C
Sampling rate : 48.0 KHz
Bit depth : 16 bits
Compression mode : Lossy
Stream size : 147 MiB (1%)
Title : студия "Пифагор"
Language : Russian
Default : No
Forced : No
Audio #3
ID : 4
Format : FLAC
Format/Info : Free Lossless Audio Codec
Codec ID : A_FLAC
Duration : 1h 46mn
Bit rate mode : Variable
Channel(s) : 2 channels
Sampling rate : 48.0 KHz
Bit depth : 24 bits
Writing library : libFLAC 1.2.1 (UTC 2007-09-17)
Language : French
Default : No
Forced : No
Text #1
ID : 5
Format : UTF-8
Codec ID : S_TEXT/UTF8
Codec ID/Info : UTF-8 Plain Text
Title : Cinema Prestige
Language : Russian
Default : No
Forced : No
Text #2
ID : 6
Format : UTF-8
Codec ID : S_TEXT/UTF8
Codec ID/Info : UTF-8 Plain Text
Language : English
Default : No
Forced : No
Menu
00:00:00.000 : en:1
00:10:23.541 : en:2
00:15:54.375 : en:3
00:22:13.791 : en:4
00:32:35.041 : en:5
00:43:16.625 : en:6
00:56:53.625 : en:7
01:09:19.958 : en:8
01:16:04.750 : en:9
01:26:26.041 : en:10
01:37:23.958 : en:11
01:44:52.458 : en:12

Скриншоты




Показать сообщения:    

Текущее время: 06-Дек 11:13

Часовой пояс: UTC + 3


Вы не можете начинать темы
Вы не можете отвечать на сообщения
Вы не можете редактировать свои сообщения
Вы не можете удалять свои сообщения
Вы не можете голосовать в опросах
Вы не можете прикреплять файлы к сообщениям
Вы не можете скачивать файлы