Возмутитель спокойствия / Borgman (Алекс ван Вармердам / Alex van Warmerdam) [2013, Нидерланды, Бельгия, триллер, драма, BDRip 1080p] MVO + Sub Eng + Original Dut


 

[Цитировать]

Возмутитель спокойствия / Borgman
Страна: Нидерланды, Бельгия
Студия: Angel Films, Epidemic, Graniet Film BV
Жанр: Триллер, арт-хаус
Год выпуска: 2013
Продолжительность: 01:53:00
Перевод: Профессиональный (многоголосый закадровый)
Cубтитры: английские
Оригинальная аудиодорожка: нидерландский
Режиссер: Алекс ван Вармердам
В ролях: Ян Бейвут, Хадевих Минис, Джероен Персеваль, Алекс ван Вармердам, Том Девиспелар, Сара Йорт Дитлевсен, Элве Лейбарт, Диркье ван дер Пейл, Питер-Бас де Вард, Ева ван де Вийдевен
Описание: То ли демон из ночных кошмаров, то ли аллегория, то ли ожившее воплощение всех человеческих страхов — Боргман, словно злой дух современного города, загнанный за красивые фасады, вырывается на волю. Размеренная жизнь обычной семьи с его появлением уже никогда не вернется в прежнее русло…
Сэмпл: http://sendfile.su/1172497
Тип релиза: BDRip 1080p
Контейнер: MKV
Видео: AVC 1920x796 2.40:1 9019 Kbps 24.000 fps
Аудио: Русский AC-3 2 channels 48.0 KHz 192 Kbps
Аудио 2: Голландский DTS 6 channels 48.0 KHz 1509 Kbps
Формат субтитров: softsub (SRT)

MediaInfo

General
Format : Matroska
Format version : Version 4 / Version 2
File size : 8.65 GiB
Duration : 1h 53mn
Overall bit rate : 10.9 Mbps
Encoded date : UTC 2015-11-09 15:27:38
Writing application : mkvmerge v6.0.0 ('Coming Up For Air') built on Jan 20 2013 09:52:00
Writing library : libebml v1.3.0 + libmatroska v1.4.0
Video
ID : 1
Format : AVC
Format/Info : Advanced Video Codec
Format profile : High@L4.1
Format settings, CABAC : Yes
Format settings, ReFrames : 5 frames
Codec ID : V_MPEG4/ISO/AVC
Duration : 1h 53mn
Bit rate : 9 019 Kbps
Width : 1 920 pixels
Height : 796 pixels
Display aspect ratio : 2.40:1
Frame rate mode : Constant
Frame rate : 24.000 fps
Color space : YUV
Chroma subsampling : 4:2:0
Bit depth : 8 bits
Scan type : Progressive
Bits/(Pixel*Frame) : 0.246
Stream size : 7.13 GiB (82%)
Language : English
Default : Yes
Forced : No
Audio #1
ID : 2
Format : AC-3
Format/Info : Audio Coding 3
Mode extension : CM (complete main)
Format settings, Endianness : Big
Codec ID : A_AC3
Duration : 1h 53mn
Bit rate mode : Constant
Bit rate : 192 Kbps
Channel(s) : 2 channels
Channel positions : Front: L R
Sampling rate : 48.0 KHz
Bit depth : 16 bits
Compression mode : Lossy
Stream size : 155 MiB (2%)
Language : Russian
Default : Yes
Forced : No
Audio #2
ID : 3
Format : DTS
Format/Info : Digital Theater Systems
Mode : 16
Format settings, Endianness : Big
Codec ID : A_DTS
Duration : 1h 53mn
Bit rate mode : Constant
Bit rate : 1 509 Kbps
Channel(s) : 6 channels
Channel positions : Front: L C R, Side: L R, LFE
Sampling rate : 48.0 KHz
Bit depth : 24 bits
Compression mode : Lossy
Stream size : 1.19 GiB (14%)
Language : Dutch
Default : No
Forced : No
Text
ID : 4
Format : UTF-8
Codec ID : S_TEXT/UTF8
Codec ID/Info : UTF-8 Plain Text
Language : English
Default : No
Forced : No
Menu
00:00:00.000 : en:00:00:00.000
00:11:47.208 : en:00:11:47.208
00:22:50.250 : en:00:22:50.250
00:35:20.500 : en:00:35:20.500
00:46:15.000 : en:00:46:15.000
00:58:25.125 : en:00:58:25.125
01:08:37.792 : en:01:08:37.792
01:19:58.250 : en:01:19:58.250
01:31:12.458 : en:01:31:12.458
01:42:29.875 : en:01:42:29.875

Скриншоты













Показать сообщения:    

Текущее время: 04-Дек 21:25

Часовой пояс: UTC + 3


Вы не можете начинать темы
Вы не можете отвечать на сообщения
Вы не можете редактировать свои сообщения
Вы не можете удалять свои сообщения
Вы не можете голосовать в опросах
Вы не можете прикреплять файлы к сообщениям
Вы не можете скачивать файлы