Плохой парень / Bad Guy / Nabbeun Namja (Ким Ки-Дук / Ki-duk Kim) [2001, Южная Корея, драма, BDRip 1080p] DVO (R5) + Sub Rus, Eng + Original Kor


 

[Цитировать]

Плохой парень / Bad Guy / Nabbeun Namja
Страна: Южная Корея
Студия: LJ Film, Prime Entertainment
Жанр: драма
Год выпуска: 2001
Продолжительность: 01:42:38
Перевод: Профессиональный (двухголосый закадровый) R5
Cубтитры: русские, английские
Оригинальная аудиодорожка: корейский
Режиссер: Ким Ки-Дук / Ki-duk Kim
В ролях: Чо Чже-Юн, Сео Вон, Ким Юн-Тай, Чой Дьюк-мун, Ким Чунь-ень, Нам Гун-мин и др.
Описание: Очарованный проходящей мимо красивой девушкой молодой бандит пытается овладеть ею, но, получив отпор, берется за исполнение своего странного и шокирующего плана. И через несколько дней девушка оказывается в «квартале красных фонарей», но не в качестве прохожей, а вынужденная торговать своим собственным телом
II Сэмпл II IMDB II
Релиз группа:

Доп. информация:
Исходники:
bad.guy.2001.1080p.bluray.dd5.1.x264.viethd
bad.guy.2001.720p.bluray.dts.x264.hds

Тип релиза: BDRip 1080p
Контейнер: MKV
Видео: AVC / 1920x1080 / 16:9 / 23.976fps / Bit rate 14500Kbps / High@L4.1
Аудио 1: AC3 / 48.0 KHz / 6ch. / 448kbps / rus / DVO / R5
Аудио 2: DTS / 48.0 KHz / 6ch. / 1509kbps / 24bit / kor
Формат субтитров: softsub (SRT)

MediaInfo

Общее
Уникальный идентификатор : 214207268940250336745449609255431263024 (0xA126D1C14C4B69B18368BF26C3B95330)
Полное имя : G:\!!!_torrent\Bad.Guy.2001.BDRip.1080p_by_vedigo.mkv
Формат : Matroska
Версия формата : Version 4 / Version 2
Размер файла : 11,8 Гбайт
Продолжительность : 1 ч. 42 м.
Общий поток : 16,5 Мбит/сек
Название фильма : Bad.Guy.2001.BDRip.1080p_by_vedigo
Дата кодирования : UTC 2015-11-09 02:53:51
Программа кодирования : mkvmerge v8.5.2 ('Crosses') 64bit
Библиотека кодирования : libebml v1.3.3 + libmatroska v1.4.4
DURATION : 01:27:27.201000000
NUMBER_OF_FRAMES : 442
NUMBER_OF_BYTES : 11892
_STATISTICS_WRITING_APP : mkvmerge v8.5.2 ('Crosses') 64bit
_STATISTICS_WRITING_DATE_UTC : 2015-11-09 02:53:51
_STATISTICS_TAGS : BPS DURATION NUMBER_OF_FRAMES NUMBER_OF_BYTES
Видео
Идентификатор : 1
Формат : AVC
Формат/Информация : Advanced Video Codec
Профиль формата : High@L4.1
Параметр CABAC формата : Да
Параметр ReFrames формата : 4 кадра
Идентификатор кодека : V_MPEG4/ISO/AVC
Продолжительность : 1 ч. 42 м.
Битрейт : 14,5 Мбит/сек
Ширина : 1920 пикселей
Высота : 1080 пикселей
Соотношение сторон : 16:9
Режим частоты кадров : Постоянный
Частота кадров : 23,976 кадра/сек
Цветовое пространство : YUV
Субдискретизация насыщенности : 4:2:0
Битовая глубина : 8 бит
Тип развёртки : Прогрессивная
Бит/(Пиксели*Кадры) : 0.292
Размер потока : 10,2 Гбайт (86%)
Заголовок : Bad.Guy.2001.BDRip.1080p_by_vedigo
Библиотека кодирования : x264 core 146 r2538kMod 121396c
Настройки программы : cabac=1 / ref=4 / deblock=1:-3:-3 / analyse=0x3:0x133 / me=umh / subme=10 / psy=1 / fade_compensate=0.00 / psy_rd=1.10:0.00 / mixed_ref=1 / me_range=24 / chroma_me=1 / trellis=2 / 8x8dct=1 / cqm=0 / deadzone=21,11 / fast_pskip=0 / chroma_qp_offset=-2 / threads=12 / lookahead_threads=2 / sliced_threads=0 / nr=0 / decimate=0 / interlaced=0 / bluray_compat=0 / constrained_intra=0 / fgo=0 / bframes=7 / b_pyramid=2 / b_adapt=2 / b_bias=0 / direct=3 / weightb=1 / open_gop=0 / weightp=2 / keyint=250 / keyint_min=23 / scenecut=40 / intra_refresh=0 / rc_lookahead=60 / rc=2pass / mbtree=0 / bitrate=14500 / ratetol=1.0 / qcomp=0.65 / qpmin=0 / qpmax=69 / qpstep=4 / cplxblur=20.0 / qblur=0.5 / vbv_maxrate=62500 / vbv_bufsize=78125 / nal_hrd=none / filler=0 / ip_ratio=1.30 / pb_ratio=1.20 / aq=3:0.70
Default : Да
Forced : Нет
Цветовой диапазон : Limited
Коэффициенты матрицы : BT.709
DURATION : 01:42:38.861000000
NUMBER_OF_FRAMES : 147665
NUMBER_OF_BYTES : 11155838041
_STATISTICS_WRITING_APP : mkvmerge v8.5.2 ('Crosses') 64bit
_STATISTICS_WRITING_DATE_UTC : 2015-11-09 02:53:51
_STATISTICS_TAGS : BPS DURATION NUMBER_OF_FRAMES NUMBER_OF_BYTES
Аудио #1
Идентификатор : 2
Формат : AC-3
Формат/Информация : Audio Coding 3
Расширение режима : CM (complete main)
Параметр Endianness формата : Big
Идентификатор кодека : A_AC3
Продолжительность : 1 ч. 42 м.
Вид битрейта : Постоянный
Битрейт : 448 Кбит/сек
Каналы : 6 каналов
Расположение каналов : Front: L C R, Side: L R, LFE
Частота : 48,0 КГц
Метод сжатия : С потерями
Размер потока : 329 Мбайт (3%)
Заголовок : DVO @ R5
Язык : Russian
Default : Да
Forced : Нет
Аудио #2
Идентификатор : 3
Формат : DTS
Формат/Информация : Digital Theater Systems
Режим : 16
Параметр Endianness формата : Big
Идентификатор кодека : A_DTS
Продолжительность : 1 ч. 42 м.
Вид битрейта : Постоянный
Битрейт : 1509 Кбит/сек
Каналы : 6 каналов
Расположение каналов : Front: L C R, Side: L R, LFE
Частота : 48,0 КГц
Битовая глубина : 24 бит
Метод сжатия : С потерями
Размер потока : 1,08 Гбайт (9%)
Заголовок : Original
Язык : Korean
Default : Нет
Forced : Нет
Текст #1
Идентификатор : 4
Формат : UTF-8
Идентификатор кодека : S_TEXT/UTF8
Идентификатор кодека/Информация : UTF-8 Plain Text
Заголовок : subtitle rus
Язык : Russian
Default : Нет
Forced : Нет
Текст #2
Идентификатор : 5
Формат : UTF-8
Идентификатор кодека : S_TEXT/UTF8
Идентификатор кодека/Информация : UTF-8 Plain Text
Заголовок : subtitle eng
Язык : English
Default : Нет
Forced : Нет
Меню
00:00:00.000 : en:00:00:00.000
00:07:00.420 : en:00:07:00.420
00:12:51.854 : en:00:12:51.854
00:17:28.923 : en:00:17:28.923
00:24:04.151 : en:00:24:04.151
00:27:34.069 : en:00:27:34.069
00:34:11.633 : en:00:34:11.633
00:38:21.341 : en:00:38:21.341
00:40:43.441 : en:00:40:43.441
00:43:36.364 : en:00:43:36.364
00:50:42.289 : en:00:50:42.289
00:54:22.176 : en:00:54:22.176
01:01:15.171 : en:01:01:15.171
01:04:39.042 : en:01:04:39.042
01:08:04.914 : en:01:08:04.914
01:14:14.867 : en:01:14:14.867
01:20:02.798 : en:01:20:02.798
01:25:48.727 : en:01:25:48.727
01:29:34.244 : en:01:29:34.244
01:34:56.941 : en:01:34:56.941

Скриншоты





Показать сообщения:    

Текущее время: 04-Дек 19:23

Часовой пояс: UTC + 3


Вы не можете начинать темы
Вы не можете отвечать на сообщения
Вы не можете редактировать свои сообщения
Вы не можете удалять свои сообщения
Вы не можете голосовать в опросах
Вы не можете прикреплять файлы к сообщениям
Вы не можете скачивать файлы