Негодяй / Akutô / A Scoundrel / The Conquest / 悪党 (Канэто Синдо / Kaneto Shindô) [1965, Япония, драма, DVD5 (Custom)] (дед сто лет) + Sub Rus


Статистика раздачи [Обновить пиров]
Размер:  3.92 GB   |    Зарегистрирован:  11 месяцев   |    Скачан:  0 раз

Полного источника не было: Никогда

Личеров:  4  [  0 KB/s  ]   Подробная статистика пиров
 
   
 
 
 

[Цитировать]

Негодяй / Akutô / A Scoundrel / The Conquest / 悪党
Страна: Япония
Жанр: драма
Год выпуска: 1965
Продолжительность: 01:58:58
Перевод: Субтитры дед_сто_лет
Cубтитры: русские
Оригинальная аудиодорожка: японский
Режиссер: Канэто Синдо / Kaneto Shindô
В ролях: Нобуко Отова, Киёко Кишида, Эйтаро Отзава
Описание: Фильм снят по классическому сюжету из истории Японии. Междоусобные войны XIV века. Действие разворачивается вокруг дома Ко-но Моронао, который в Японии стал нарицательным для обозначения грубости, невежества, сумасбродства. Будучи талантливым воином, он пользовался покровительством Сёгуна и считал, что может творить любые бесчинства. Его безрассудство стало причиной трагических событий, изображенных в знаменитом эпосе о мести 47 верных вассалов
Доп. информация: Диск из собственной колекции.
Сэмпл: http://sendfile.su/1149647
Тип релиза: DVD5 (Custom)
Контейнер: DVD-Video
Видео: NTSC 16:9 (720x480) VBR Auto Pan&Scan
Аудио: Japanese (Dolby AC3, 224 Kbps, 1 ch)
Формат субтитров: prerendered (DVD/IDX+SUB)

DVDInfo

Size: 3.92 Gb ( 4 113 010 KBytes ) - DVD-5
Enabled regions: 1, 2, 3, 4, 5, 6
VTS_01 :
Play Length: 01:58:58
Video: NTSC 16:9 (720x480) VBR, Auto Pan&Scan
Audio:
Japanese (Dolby AC3, 1 ch)
Subtitles:
Russian
Japanese
Japanese
English
Menu Video:
NTSC 16:9 (720x480) VBR
Auto Pan&Scan
Menu Audio:
Not specified (Dolby AC3, 1 ch)
Menu Subtitles:
Not specified
Menu Japanese Language Unit :
Root Menu

MediaInfo

General
Complete name : K:\A Scoundrel_1965\VIDEO_TS\VTS_01_1.VOB
Format : MPEG-PS
File size : 1 024 MiB
Duration : 28mn 54s
Overall bit rate mode : Variable
Overall bit rate : 4 954 Kbps
Video
ID : 224 (0xE0)
Format : MPEG Video
Format version : Version 2
Format profile : Main@Main
Format settings, BVOP : Yes
Format settings, Matrix : Custom
Duration : 28mn 54s
Bit rate mode : Variable
Bit rate : 4 631 Kbps
Maximum bit rate : 9 800 Kbps
Width : 720 pixels
Height : 480 pixels
Display aspect ratio : 16:9
Frame rate : 29.970 fps
Standard : NTSC
Color space : YUV
Chroma subsampling : 4:2:0
Bit depth : 8 bits
Compression mode : Lossy
Bits/(Pixel*Frame) : 0.447
Stream size : 957 MiB (93%)
Audio
ID : 189 (0xBD)-128 (0x80)
Format : AC-3
Format/Info : Audio Coding 3
Mode extension : CM (complete main)
Format settings, Endianness : Big
Muxing mode : DVD-Video
Duration : 28mn 53s
Bit rate mode : Constant
Bit rate : 224 Kbps
Channel(s) : 1 channel
Channel positions : Front: C
Sampling rate : 48.0 KHz
Bit depth : 16 bits
Compression mode : Lossy
Stream size : 46.3 MiB (5%)
Text #1
ID : 189 (0xBD)-32 (0x20)
Format : RLE
Format/Info : Run-length encoding
Muxing mode : DVD-Video
Duration : 28mn 48s
Delay relative to video : 200ms
Text #2
ID : 189 (0xBD)-35 (0x23)
Format : RLE
Format/Info : Run-length encoding
Muxing mode : DVD-Video
Duration : 28mn 48s
Delay relative to video : 200ms
Text #3
ID : 189 (0xBD)-33 (0x21)
Format : RLE
Format/Info : Run-length encoding
Muxing mode : DVD-Video
Text #4
ID : 189 (0xBD)-34 (0x22)
Format : RLE
Format/Info : Run-length encoding
Muxing mode : DVD-Video
Menu

Скриншоты меню

Скриншоты

[teatrix.ru].t10953.torrent 
Торрент: Зарегистрирован [ 2015-12-07 05:05 ] · F98353B35572F87D03AF6B93417497E2E2EA1ABD

Скачать .torrent

Скачать

21 KB

Статус: проверено
Скачан: 0 раз
Размер: 3.92 GB
terms.php



Быстрый ответ

Имя:

      
Для отправки сообщений необходимо включить JavaScript
Показать сообщения:    

Текущее время: 06-Дек 22:57

Часовой пояс: UTC + 3


Вы можете начинать темы
Вы можете отвечать на сообщения
Вы не можете редактировать свои сообщения
Вы не можете удалять свои сообщения
Вы не можете голосовать в опросах
Вы не можете прикреплять файлы к сообщениям
Вы можете скачивать файлы