(Classical) Igor Stravinsky - Petrouchka & Le baiser de la fee | Игорь Стравинский - Петрушка и Поцелуй феи (Евгений Мравинский) - 2015, FLAC (image+.cue) lossless


 

[Цитировать]

Yevgeny Mravinsky conducts Igor Stravinsky
Жанр: Classical
Страна-производитель диска: Austria
Год издания диска: 2015
Издатель (лейбл): Praga Digitals
Номер по каталогу: 350 113
Дата записи: 14.V.1961 (Петрушка) & 18.XI.1982 (Поцелуй феи)
Аудиокодек: FLAC
Тип рипа: image+.cue
Битрейт аудио: lossless
Продолжительность: 1:16'25"
Источник: собственный рип
Наличие сканов в содержимом раздачи: да
Треклист:
Petrouchka (редакция 1947 года)
01. I. First Tableau
02. II. Second Tableau
03. III. Third Tableau
04. IV. Fourth Tableau
Le baiser de la fée
05. I. First Scene
06. II. Second Scene
07. III. Third Scene - By The Mill
08. III. Third Scene - Pas de Deux - Entree
09. III. Third Scene - Pas de Deux - Adagio
10. III. Third Scene - Pas de Deux - Variation
11. III. Third Scene - Pas de Deux - Coda
12. III. Third Scene - Scene
13. IV. Fourth Scene - Epilogue
Исполнители:
ЗКР Академический симфонический оркестр Ленинградской государственной филармонии
Евгений Мравинский
-

Лог создания рипа

Exact Audio Copy V1.0 beta 4 from 7. December 2014
EAC extraction logfile from 5. December 2015, 17:51
Yevgeny Mravinsky / conducts Igor Stravinsky
Used drive : TSSTcorpDVDWBD TS-LB23A Adapter: 1 ID: 0
Read mode : SecureUtilize accurate stream : YesDefeat audio cache : YesMake use of C2 pointers : No
Read offset correction : 6Overread into Lead-In and Lead-Out : NoFill up missing offset samples with silence : YesDelete leading and trailing silent blocks : NoNull samples used in CRC calculations : YesUsed interface : Native Win32 interface for Win NT & 2000
Used output format : User Defined EncoderSelected bitrate : 128 kBit/sQuality : HighAdd ID3 tag : YesCommand line compressor : C:\Program Files (x86)\Exact Audio Copy\Flac\flac.exeAdditional command line options : -T "COMMENT=Ripped by GFox" -V -8 %source%
TOC of the extracted CD
Track | Start | Length | Start sector | End sector --------------------------------------------------------- 1 | 0:00.00 | 9:35.51 | 0 | 43175 2 | 9:35.51 | 4:25.13 | 43176 | 63063 3 | 14:00.64 | 7:03.72 | 63064 | 94860 4 | 21:04.61 | 13:23.65 | 94861 | 155150 5 | 34:28.51 | 7:57.61 | 155151 | 190986 6 | 42:26.37 | 10:44.45 | 190987 | 239331 7 | 53:11.07 | 6:07.57 | 239332 | 266913 8 | 59:18.64 | 1:26.73 | 266914 | 273436 9 | 60:45.62 | 3:07.51 | 273437 | 287512 10 | 63:53.38 | 1:14.34 | 287513 | 293096 11 | 65:07.72 | 1:57.52 | 293097 | 301923 12 | 67:05.49 | 4:27.72 | 301924 | 322020 13 | 71:33.46 | 4:51.64 | 322021 | 343909
Range status and errors
Selected range
Filename D:\Downloads\Yevgeny Mravinsky - conducts Igor Stravinsky.wav
Peak level 87.3 % Extraction speed 2.0 X Range quality 100.0 % Test CRC E625832B Copy CRC E625832B Copy OK
No errors occurred
AccurateRip summary
Track 1 not present in databaseTrack 2 not present in databaseTrack 3 not present in databaseTrack 4 not present in databaseTrack 5 not present in databaseTrack 6 not present in databaseTrack 7 not present in databaseTrack 8 not present in databaseTrack 9 not present in databaseTrack 10 not present in databaseTrack 11 not present in databaseTrack 12 not present in databaseTrack 13 not present in database
None of the tracks are present in the AccurateRip database
End of status report
==== Log checksum 1C06A9F975EE1A23762CF715282D70225A3D85709B0E1EE6DC677F1C76A6F395 ====



Показать сообщения:    

Текущее время: 10-Дек 11:57

Часовой пояс: UTC + 3


Вы не можете начинать темы
Вы не можете отвечать на сообщения
Вы не можете редактировать свои сообщения
Вы не можете удалять свои сообщения
Вы не можете голосовать в опросах
Вы не можете прикреплять файлы к сообщениям
Вы не можете скачивать файлы