(Classical) Jean Sibelius - Jedermann; Two Serious Melodies; In memoriam - Pia Pajala, Tuomas Katajala, Nicholas Soderlund, Cathedralis Aboensis Choir, Mikaela Palmu, Turku Philharmonic Orchestra, Leif Segerstam - 2015, FLAC (image+.cue) lossless


 

[Цитировать]

Jean Sibelius - Jedermann; Two Serious Melodies; In memoriam - Pia Pajala, Tuomas Katajala, Nicholas Söderlund, Cathedralis Aboensis Choir, Mikaela Palmu, Turku Philharmonic Orchestra, Leif Segerstam
Жанр: Classical
Год издания диска: 2015
Издатель (лейбл): Naxos
Номер по каталогу: 8.573340
Дата записи: 2014
Аудиокодек: FLAC
Тип рипа: image+.cue
Битрейт аудио: lossless
Продолжительность: 72:50
Источник: собственный рип
Наличие сканов в содержимом раздачи: да
Треклист:
Jean Sibelius (1865-1957)
[1]-[17] Jedermann (Jokamies/Everyman), Op.83 (1916)
[18]-[19] Two Serious Melodies, Op.77
for Violin and Orchestra
[20] In memoriam, Op.59 (1910)
Исполнители:
Pia Pajala soprano ([6]-[8])
Tuomas Katajala tenor ([5])
Nicholas Söderlund bass ([8]-[9])
Cathedralis Aboensis Choir ([5], [9], [10], [17])
Mikaela Palmu violin ([18]-[19])
Turku Philharmonic Orchestra
Leif Segerstam

Лог создания рипа

Exact Audio Copy V1.1 from 23. June 2015
EAC extraction logfile from 22. November 2015, 18:30
Turku Philharmonic Orchestra, Leif Segerstam / Sibelius - Jederman
Used drive : HL-DT-STDVDRAM GU70N Adapter: 1 ID: 0
Read mode : SecureUtilize accurate stream : YesDefeat audio cache : YesMake use of C2 pointers : No
Read offset correction : 48Overread into Lead-In and Lead-Out : NoFill up missing offset samples with silence : YesDelete leading and trailing silent blocks : NoNull samples used in CRC calculations : YesUsed interface : Native Win32 interface for Win NT & 2000
Used output format : User Defined EncoderSelected bitrate : 128 kBit/sQuality : HighAdd ID3 tag : NoCommand line compressor : C:\Program Files (x86)\Exact Audio Copy\Flac\flac.exeAdditional command line options : -V -8 -T "Date=%year%" -T "Genre=%genre%" %source%
TOC of the extracted CD
Track | Start | Length | Start sector | End sector --------------------------------------------------------- 1 | 0:00.00 | 0:09.33 | 0 | 707 2 | 0:09.33 | 1:31.52 | 708 | 7584 3 | 1:41.10 | 1:23.48 | 7585 | 13857 4 | 3:04.58 | 0:24.12 | 13858 | 15669 5 | 3:28.70 | 3:18.68 | 15670 | 30587 6 | 6:47.63 | 0:15.02 | 30588 | 31714 7 | 7:02.65 | 0:16.59 | 31715 | 32973 8 | 7:19.49 | 0:48.74 | 32974 | 36647 9 | 8:08.48 | 0:39.52 | 36648 | 39624 10 | 8:48.25 | 1:15.29 | 39625 | 45278 11 | 10:03.54 | 2:56.21 | 45279 | 58499 12 | 13:00.00 | 13:07.22 | 58500 | 117546 13 | 26:07.22 | 2:43.26 | 117547 | 129797 14 | 28:50.48 | 4:07.20 | 129798 | 148342 15 | 32:57.68 | 8:39.52 | 148343 | 187319 16 | 41:37.45 | 4:19.54 | 187320 | 206798 17 | 45:57.24 | 3:27.39 | 206799 | 222362 18 | 49:24.63 | 5:50.58 | 222363 | 248670 19 | 55:15.46 | 4:27.21 | 248671 | 268716 20 | 59:42.67 | 13:05.08 | 268717 | 327599
Range status and errors
Selected range
Filename C:\temp\Naxos_8.573340 - Sibelius - Jedermann\Sibelius - Jederman.wav
Peak level 97.6 % Extraction speed 2.3 X Range quality 100.0 % Test CRC D2B2E0C4 Copy CRC D2B2E0C4 Copy OK
No errors occurred
AccurateRip summary
Track 1 not present in databaseTrack 2 not present in databaseTrack 3 not present in databaseTrack 4 not present in databaseTrack 5 not present in databaseTrack 6 not present in databaseTrack 7 not present in databaseTrack 8 not present in databaseTrack 9 not present in databaseTrack 10 not present in databaseTrack 11 not present in databaseTrack 12 not present in databaseTrack 13 not present in databaseTrack 14 not present in databaseTrack 15 not present in databaseTrack 16 not present in databaseTrack 17 not present in databaseTrack 18 not present in databaseTrack 19 not present in databaseTrack 20 not present in database
None of the tracks are present in the AccurateRip database
End of status report
==== Log checksum 30F650F336DC6EA852980BFE5597036747AEF733612EA834DFCEE7DA1BD206CC ====



Показать сообщения:    

Текущее время: 08-Дек 08:59

Часовой пояс: UTC + 3


Вы не можете начинать темы
Вы не можете отвечать на сообщения
Вы не можете редактировать свои сообщения
Вы не можете удалять свои сообщения
Вы не можете голосовать в опросах
Вы не можете прикреплять файлы к сообщениям
Вы не можете скачивать файлы