Музей Прадо. Первое столетие Прадо / Museo del Prado. El primer siglo del Prado (Хосе Луис Лопес-Линарес / Jose Luis Lopez-Linares) [2007, документальный, история искусств, DVB] DVO (Ред Медиа)


Статистика раздачи [Обновить пиров]
Размер:  956 MB   |    Зарегистрирован:  1 год   |    Скачан:  0 раз

Полного источника не было: Никогда

Личеров:  4  [  0 KB/s  ]   Подробная статистика пиров
 
   
 
 
 

[Цитировать]

Музей Прадо. Первое столетие Прадо
Museo del Prado. El primer siglo del Prado- Дата/Год выпуска: 2007
Страна: Испания
Жанр: документальный, история искусств
Продолжительность: 00:50:19
Перевод: Профессиональный (двухголосый закадровый)
Доп. инфо о переводе: ТПО "Ред Медиа"
Русские субтитры: нет
Режиссер: Хосе Луис Лопес-Линарес / José Luis López-Linares
Телеканал: 365 днейОписание: Прадо входит с число старейших музеев мира. Здесь находится одно из лучший собраний произведений западного искусства. Собрание испанских королей, создававшееся на протяжении нескольких веков. Это замечательная сокровищница испанского королевского двора, где во всем ощущается дух XIX столетия. Музей был основан в 1819 году при жизни великого Гойи, он имел возможность увидеть свои картины рядом с произведениями знаменитых мастеров всех времен.
Доп. информация: DVB-S

качество: DVB
формат: MKV
Видео: MPEG Video 2, 720x576@768x576 (4:3), 25 fps, ~2412 kbps avg, 0.233 bit/pixel
Аудио: MPEG Audio 2, 2 ch, 48 kHz, 192 kbps

MediaInfo

ОбщееУникальный идентификатор : 238561688542749653798735600857525094106 (0xB3794F5932BC4341A1E2025B061986DA)Полное имя : F:\My Torrents 3\[apreder]El_primer_siglo_del_Prado(2007)DVB.mkvФормат : MatroskaВерсия формата : Version 2Размер файла : 956 МбайтПродолжительность : 50 м.Режим общего битрейта : ПеременныйОбщий поток : 2657 Кбит/секНазвание фильма : El primer siglo del PradoДата выпуска : 2007-00-00Дата кодирования : UTC 2015-12-06 17:13:38Программа кодирования : mkvmerge v8.6.1 ('Flying') 64bitБиблиотека кодирования : libebml v1.3.3 + libmatroska v1.4.4Attachements : cover.jpg / cover_small.jpgDIRECTOR : José Luis López-LinaresKEYWORDS : LAW_RATING : 12+
ВидеоИдентификатор : 1Формат : MPEG VideoВерсия формата : Version 2Профиль формата : Main@MainПараметр BVOP формата : ДаПараметр матрицы формата : ВыборочнаяПараметр GOP формата : M=3, N=36Format_Settings_PictureStructure : FrameИдентификатор кодека : V_MPEG2Идентификатор кодека/Информация : MPEG 1 or 2 VideoПродолжительность : 50 м.Вид битрейта : ПеременныйБитрейт : 2412 Кбит/секШирина : 720 пикселейВысота : 576 пикселейСоотношение сторон : 4:3Режим частоты кадров : ПостоянныйЧастота кадров : 25,000 кадров/секСтандарт вещания : PALЦветовое пространство : YUVСубдискретизация насыщенности : 4:2:0Битовая глубина : 8 битТип развёртки : ЧересстрочнаяПорядок развёртки : Верхнее поле первоеМетод сжатия : С потерямиБит/(Пиксели*Кадры) : 0.233Временной код первого кадра : 00:00:00:00Оригинал временного кода : Group of pictures headerРазмер потока : 868 Мбайт (91%)Default : ДаForced : Нет
АудиоИдентификатор : 2Формат : MPEG AudioВерсия формата : Version 1Профиль формата : Layer 2Идентификатор кодека : A_MPEG/L2Идентификатор кодека/Подсказка : MP2Продолжительность : 50 м.Вид битрейта : ПостоянныйБитрейт : 192 Кбит/секКаналы : 2 каналаЧастота : 48,0 КГцМетод сжатия : С потерямиРазмер потока : 69,1 Мбайт (7%)Язык : RussianDefault : ДаForced : Нет

Скриншоты


Резервные скриншоты


[teatrix.ru].t10962.torrent 
Торрент: Зарегистрирован [ 2015-12-07 05:05 ] · 553F2F50D27170659ADD2AD237DEEE5156F5C3DB

Скачать .torrent

Скачать

19 KB

Статус: проверено
Скачан: 0 раз
Размер: 956 MB
terms.php



Быстрый ответ

Имя:

      
Для отправки сообщений необходимо включить JavaScript
Показать сообщения:    

Текущее время: 09-Дек 20:30

Часовой пояс: UTC + 3


Вы можете начинать темы
Вы можете отвечать на сообщения
Вы не можете редактировать свои сообщения
Вы не можете удалять свои сообщения
Вы не можете голосовать в опросах
Вы не можете прикреплять файлы к сообщениям
Вы можете скачивать файлы