Мародёры Гитлера / Les marchands d'Hitler / Dealing with the Devil (Стефан Бентура / Stéphane Bentura) [2015, документальный, история искусств, DVB] Original (Fre) + Sub (Rus, Eng, Fre, Deu)


Статистика раздачи [Обновить пиров]
Размер:  1.3 GB   |    Зарегистрирован:  1 год   |    Скачан:  0 раз

Полного источника не было: Никогда

Личеров:  5  [  0 KB/s  ]   Подробная статистика пиров
 
   
 
 
 

[Цитировать]

Мародёры Гитлера
Les marchands d'Hitler- Дата/Год выпуска: 2015
Страна: Франция
Жанр: документальный, история искусств
Продолжительность: 01:01:36
Перевод: Субтитры
Доп. инфо о переводе: русский перевод И.Рыбкиной, Éclair Media
Русские субтитры: естьФормат субтитров: prerendered (IDX+SUB)
Доп. информация о субтитрах: русские, английские, французские, немецкие, нидерландские, румынские
Оригинальная аудиодорожка: французский
Режиссер: Стефан Бентура / Stéphane Bentura
Телеканал: TV5MONDE Europe
Описание: За полгода до смерти о нем никто не знал. Его провожали в последний путь кузен, адвокаты, представители немецкого правительства и арт-дилеры. Корнелиусу Гурлитту (1932-2014) был 81 год. За несколько месяцев до его смерти у него дома была обнаружена богатейшая коллекция картин, которую во всем мире прозвали "нацистским сокровищем". Эта находка потрясла Германию. В коллекцию входили 1'406 полотен "дегенеративного искусства": рисунков, картин, акварелей известных художников, приобретенных благодаря нацистам. Стоимость коллекции оценивается в 1 млрд. евро. Коллекция включает работы Пабло Пикассо, Анри Матисса, Марка Шагала, Эмиля Нольде, Франца Марка, Макса Бекмана, Пауля Клее, Оскара Кокошки, Эрнста Людвига Кирхнера, Макса Либермана, Альбрехта Дюрера и других. Старый коллекционер жил, как отшельник, питался консервами и чах над своими сокровищами. (из предисловия к фильму)
Доп. информация: Hot Bird (13.0°E) TV5MONDE Europe DVB-S. Во время нефранцузской речи на экране вшитые французские субтитры.
Участник Festival du Film Juif de San Francisco 2015; отобран в конкурсную программу San Diego Jewish Film Festival 2016.

качество: DVB
формат: MKV
Видео: MPEG Video 2, 720x576@1024x576 (16:9), 25 fps, ~2765 kbps avg, 0.267 bit/pixel
Аудио: MPEG Audio 2, 2 ch, 48 kHz, 192 kbps - французский

MediaInfo

ОбщееУникальный идентификатор : 245869376929292484989040276231688490431 (0xB8F8B83402536886B5F7448D12830DBF)Полное имя : F:\My Torrents 3\[apreder]Les_marchands_d'Hitler(2015)DVB.mkvФормат : MatroskaВерсия формата : Version 2Размер файла : 1,30 ГбайтПродолжительность : 1 ч. 1 м.Режим общего битрейта : ПеременныйОбщий поток : 3017 Кбит/секНазвание фильма : Les marchands d'HitlerДата выпуска : 2015-00-00Дата кодирования : UTC 2015-12-05 13:50:56Программа кодирования : mkvmerge v8.6.1 ('Flying') 64bitБиблиотека кодирования : libebml v1.3.3 + libmatroska v1.4.4Attachements : cover.jpg / cover_small.jpgDIRECTOR : Stéphane BenturaGENRE : DocumentaryKEYWORDS : LAW_RATING : 12+
ВидеоИдентификатор : 1Формат : MPEG VideoВерсия формата : Version 2Профиль формата : Main@MainПараметр BVOP формата : ДаПараметр матрицы формата : ВыборочнаяПараметр GOP формата : M=4, N=12Format_Settings_PictureStructure : FrameИдентификатор кодека : V_MPEG2Идентификатор кодека/Информация : MPEG 1 or 2 VideoПродолжительность : 1 ч. 1 м.Вид битрейта : ПеременныйБитрейт : 2765 Кбит/секШирина : 720 пикселейВысота : 576 пикселейСоотношение сторон : 16:9Режим частоты кадров : ПостоянныйЧастота кадров : 25,000 кадров/секСтандарт вещания : PALЦветовое пространство : YUVСубдискретизация насыщенности : 4:2:0Битовая глубина : 8 битТип развёртки : ЧересстрочнаяПорядок развёртки : Верхнее поле первоеМетод сжатия : С потерямиБит/(Пиксели*Кадры) : 0.267Временной код первого кадра : 00:00:00:00Оригинал временного кода : Group of pictures headerРазмер потока : 1,19 Гбайт (92%)Default : ДаForced : Нет
АудиоИдентификатор : 2Формат : MPEG AudioВерсия формата : Version 1Профиль формата : Layer 2Режим : Joint stereoРасширение режима : Intensity Stereo + MS StereoИдентификатор кодека : A_MPEG/L2Идентификатор кодека/Подсказка : MP2Продолжительность : 1 ч. 1 м.Вид битрейта : ПостоянныйБитрейт : 192 Кбит/секКаналы : 2 каналаЧастота : 48,0 КГцМетод сжатия : С потерямиРазмер потока : 84,6 Мбайт (6%)Язык : FrenchDefault : ДаForced : Нет
Текст #1Идентификатор : 3Формат : VobSubИдентификатор кодека : S_VOBSUBИдентификатор кодека/Информация : Picture based subtitle format used on DVDsЯзык : RussianDefault : ДаForced : Нет
Текст #2Идентификатор : 4Формат : VobSubИдентификатор кодека : S_VOBSUBИдентификатор кодека/Информация : Picture based subtitle format used on DVDsЯзык : EnglishDefault : НетForced : Нет
Текст #3Идентификатор : 5Формат : VobSubИдентификатор кодека : S_VOBSUBИдентификатор кодека/Информация : Picture based subtitle format used on DVDsЯзык : FrenchDefault : НетForced : Нет
Текст #4Идентификатор : 6Формат : VobSubИдентификатор кодека : S_VOBSUBИдентификатор кодека/Информация : Picture based subtitle format used on DVDsЯзык : GermanDefault : НетForced : Нет
Текст #5Идентификатор : 7Формат : VobSubИдентификатор кодека : S_VOBSUBИдентификатор кодека/Информация : Picture based subtitle format used on DVDsЯзык : DutchDefault : НетForced : Нет
Текст #6Идентификатор : 8Формат : VobSubИдентификатор кодека : S_VOBSUBИдентификатор кодека/Информация : Picture based subtitle format used on DVDsЯзык : RomanianDefault : НетForced : Нет

Скриншоты


Резервные скриншоты


[teatrix.ru].t10964.torrent 
Торрент: Зарегистрирован [ 2015-12-07 05:05 ] · 3C00C1C9EACAAE67A920056C6CF36999A6974E67

Скачать .torrent

Скачать

13 KB

Статус: проверено
Скачан: 0 раз
Размер: 1.3 GB
terms.php



Быстрый ответ

Имя:

      
Для отправки сообщений необходимо включить JavaScript
Показать сообщения:    

Текущее время: 08-Дек 07:02

Часовой пояс: UTC + 3


Вы можете начинать темы
Вы можете отвечать на сообщения
Вы не можете редактировать свои сообщения
Вы не можете удалять свои сообщения
Вы не можете голосовать в опросах
Вы не можете прикреплять файлы к сообщениям
Вы можете скачивать файлы