Саймон Шама о Рембрандте. Шедевры последних лет / Simon Schama on Rembrandt: Masterpieces of the Late Years (Франк Ханли / Frank Hanly) [2014, Документальный, личности и кумиры, DVB]


Статистика раздачи [Обновить пиров]
Размер:  1.35 GB   |    Зарегистрирован:  11 месяцев   |    Скачан:  1 раз

Полного источника не было: 27 дней

Личеров:  2  [  0 KB/s  ]   Подробная статистика пиров
 
   
 
 
 

[Цитировать]

Саймон Шама о Рембрандте. Шедевры последних лет / Simon Schama on Rembrandt: Masterpieces of the Late Years
Дата/Год выпуска: 2014
Страна: Великобритания
Жанр: Документальный, личности и кумиры
Продолжительность: 00:59:23
Перевод: Студийный (одноголосый закадровый)
Русские субтитры: нет
Режиссер: Франк Ханли / Frank Hanly
Телеканал: Моя Планета
Описание: Рембрандт как Икар, который полетел выше к солнцу. Он был самый успешный художник, он жил в самом богатом городе на земле 17-го века в Амстердаме. Рембрандт жил, как принц, и любил жить, как принц, но впереди его ждал упадок - банкротство, скандалы, бедность, однако, это не уничтожило его, напротив подвигло его к новым творческим вершинам с чувством величайшего человеческого достоинства . Саймон Шама рассказывает нам о шедеврах Рембрандта его творческих последних лет.
Производство:ВВС
Доп. информация: Данный фильм является новым фильмом о Рембрандте , где ведущим является Саймон Шама и он значительно отличается от другого фильма о Рембрандте и также производства BBC (2006 года), из серии "Сила искусства / The Power of Art" ,по ссылке - http://teatrix.ru/viewtopic.php?t=12421 , где ведущим так же был Саймон Шама.
Сэмпл: https://www.sendspace.com/file/aif7bp
качество: DVB
формат: MPG
Видео: MPEG2, 720:576, (4:3), 3037 Кбит/сек, 25,000 кадров/сек, (0.293 bit/pixel)
Аудио: MP2, 160 Кбит/сек, 48,0 КГц, 2 канала

MediaInfo

ОбщееПолное имя : Саймон Шама о Рембрандте. Шедевры последних лет.mpgФормат : MPEG-PSРазмер файла : 1,35 ГбайтПродолжительность : 59 м.Режим общего битрейта : ПеременныйОбщий поток : 3262 Кбит/сек
ВидеоИдентификатор : 224 (0xE0)Формат : MPEG VideoВерсия формата : Version 2Профиль формата : Main@MainПараметр BVOP формата : ДаПараметр матрицы формата : ВыборочнаяПараметр GOP формата : M=3, N=12Структура изображения : FrameПродолжительность : 59 м.Вид битрейта : ПеременныйБитрейт : 3037 Кбит/секМаксимальный битрейт : 15,0 Мбит/секШирина : 720 пикселейВысота : 576 пикселейСоотношение сторон : 4:3Частота кадров : 25,000 кадров/секСтандарт вещания : PALЦветовое пространство : YUVСубдискретизация насыщенности : 4:2:0Битовая глубина : 8 битТип развёртки : ЧересстрочнаяПорядок развёртки : Верхнее поле первоеМетод сжатия : С потерямиБит/(Пиксели*Кадры) : 0.293Временной код первого кадра : 00:00:00:00Оригинал временного кода : Group of pictures headerGOP, открыто/закрыто : ОткрытоGOP, открыто/закрыто на первом кадре : ЗакрытоРазмер потока : 1,26 Гбайт (93%)
АудиоИдентификатор : 192 (0xC0)Формат : MPEG AudioВерсия формата : Version 1Профиль формата : Layer 2Продолжительность : 59 м.Вид битрейта : ПостоянныйБитрейт : 160 Кбит/секКаналы : 2 каналаЧастота : 48,0 КГцМетод сжатия : С потерямиЗадержка видео : 12 мс.Размер потока : 68,0 Мбайт (5%)

Скриншоты


Запись потока *.ts произведена тюнером цифрового телевидения. В связи с тем, что не все плееры воспроизводят поток *.ts (MPEG-TS) , в данном видеофайле мной был сделан ремукс потока *.ts (MPEG-TS) в *.mpg (MPEG-PS) программой VideoReDo.
[teatrix.ru].t10965.torrent 
Торрент: Зарегистрирован [ 2015-12-07 05:05 ] · 41189A3589C72F8CC1C494F656F394A7AEBFBEDA

Скачать .torrent

Скачать

14 KB

Статус: проверено
Скачан: 1 раз
Размер: 1.35 GB
terms.php



Быстрый ответ

Имя:

      
Для отправки сообщений необходимо включить JavaScript
Показать сообщения:    

Текущее время: 05-Дек 05:32

Часовой пояс: UTC + 3


Вы можете начинать темы
Вы можете отвечать на сообщения
Вы не можете редактировать свои сообщения
Вы не можете удалять свои сообщения
Вы не можете голосовать в опросах
Вы не можете прикреплять файлы к сообщениям
Вы можете скачивать файлы