Все мы выступим в Олимпии / On ira tous a l\'Olympia (Мари-Пьер Рембо / Marie-Pierre Raimbault) [2014, документальный, музыка, DVB] Original (Fre) + Sub (Rus, Eng, Fre, Deu)


Статистика раздачи [Обновить пиров]
Размер:  1.13 GB   |    Зарегистрирован:  1 год 1 месяц   |    Скачан:  0 раз

Полного источника не было: Никогда

Личеров:  2  [  0 KB/s  ]   Подробная статистика пиров
 
   
 
 
 

[Цитировать]

Все мы выступим в "Олимпии"
On ira tous à l'Olympia- Дата/Год выпуска: 2014
Страна: Франция
Жанр: документальный, музыка
Продолжительность: 00:49:57
Перевод: Субтитры
Доп. инфо о переводе: русский перевод М.Кузиной, Éclair Media
Русские субтитры: естьФормат субтитров: prerendered (IDX+SUB)
Доп. информация о субтитрах: русские, английские, французские, немецкие, нидерландские, румынские
Оригинальная аудиодорожка: французский
Режиссер: Мари-Пьер Рембо / Marie-Pierre Raimbault
Телеканал: TV5MONDE Europe
Описание: Фильм об уникальном музыкальном коллективе Le collectif Artypique, который дает возможность умственно отсталым детям реализовать свои творческие возможности. В состав коллектива входят как дети с синдромом Дауна, так и профессиональные певцы, и артисты цирка. Вдохновившись фильмом Джона Лэндиса "Братья Блюз", коллектив подготовил получасовое шоу, отдающее дань романтике Парижа, Эдит Пиаф и Братьям Блюз. 7 октября 2014 года шоу прошло в парижском концертном зале "Олимпия".
Доп. информация: Hot Bird (13.0°E) TV5MONDE Europe DVB-S

качество: DVB
формат: MKV
Видео: MPEG Video 2, 720x576@1024x576 (16:9), 25 fps, ~2976 kbps avg, 0.287 bit/pixel
Аудио: MPEG Audio 2, 2 ch, 48 kHz, 192 kbps - французский

MediaInfo

ОбщееУникальный идентификатор : 217785238032602172085360701989227987300 (0xA3D7E9404A6ECDF1A733FF8F936A0164)Полное имя : F:\My Torrents 3\[apreder]On_Ira_tous_a_l'Olympia(2014)DVB.mkvФормат : MatroskaВерсия формата : Version 2Размер файла : 1,13 ГбайтПродолжительность : 49 м.Режим общего битрейта : ПеременныйОбщий поток : 3233 Кбит/секНазвание фильма : On Ira tous a l'OlympiaДата выпуска : 2014-00-00Дата кодирования : UTC 2015-12-05 17:02:23Программа кодирования : mkvmerge v8.6.1 ('Flying') 64bitБиблиотека кодирования : libebml v1.3.3 + libmatroska v1.4.4Attachements : cover.jpg / cover_small.jpgDIRECTOR : Marie-Pierre RaimbaultGENRE : DocumentaryKEYWORDS : LAW_RATING : 12+
ВидеоИдентификатор : 1Формат : MPEG VideoВерсия формата : Version 2Профиль формата : Main@MainПараметр BVOP формата : ДаПараметр матрицы формата : ВыборочнаяПараметр GOP формата : M=4, N=12Format_Settings_PictureStructure : FrameИдентификатор кодека : V_MPEG2Идентификатор кодека/Информация : MPEG 1 or 2 VideoПродолжительность : 49 м.Вид битрейта : ПеременныйБитрейт : 2976 Кбит/секШирина : 720 пикселейВысота : 576 пикселейСоотношение сторон : 16:9Режим частоты кадров : ПостоянныйЧастота кадров : 25,000 кадров/секСтандарт вещания : PALЦветовое пространство : YUVСубдискретизация насыщенности : 4:2:0Битовая глубина : 8 битТип развёртки : ЧересстрочнаяПорядок развёртки : Верхнее поле первоеМетод сжатия : С потерямиБит/(Пиксели*Кадры) : 0.287Временной код первого кадра : 00:00:00:00Оригинал временного кода : Group of pictures headerРазмер потока : 1,04 Гбайт (92%)Default : ДаForced : Нет
АудиоИдентификатор : 2Формат : MPEG AudioВерсия формата : Version 1Профиль формата : Layer 2Режим : Joint stereoРасширение режима : Intensity Stereo + MS StereoИдентификатор кодека : A_MPEG/L2Идентификатор кодека/Подсказка : MP2Продолжительность : 49 м.Вид битрейта : ПостоянныйБитрейт : 192 Кбит/секКаналы : 2 каналаЧастота : 48,0 КГцМетод сжатия : С потерямиРазмер потока : 68,6 Мбайт (6%)Язык : FrenchDefault : ДаForced : Нет
Текст #1Идентификатор : 3Формат : VobSubИдентификатор кодека : S_VOBSUBИдентификатор кодека/Информация : Picture based subtitle format used on DVDsЯзык : RussianDefault : ДаForced : Нет
Текст #2Идентификатор : 4Формат : VobSubИдентификатор кодека : S_VOBSUBИдентификатор кодека/Информация : Picture based subtitle format used on DVDsЯзык : EnglishDefault : НетForced : Нет
Текст #3Идентификатор : 5Формат : VobSubИдентификатор кодека : S_VOBSUBИдентификатор кодека/Информация : Picture based subtitle format used on DVDsЯзык : FrenchDefault : НетForced : Нет
Текст #4Идентификатор : 6Формат : VobSubИдентификатор кодека : S_VOBSUBИдентификатор кодека/Информация : Picture based subtitle format used on DVDsЯзык : GermanDefault : НетForced : Нет
Текст #5Идентификатор : 7Формат : VobSubИдентификатор кодека : S_VOBSUBИдентификатор кодека/Информация : Picture based subtitle format used on DVDsЯзык : DutchDefault : НетForced : Нет
Текст #6Идентификатор : 8Формат : VobSubИдентификатор кодека : S_VOBSUBИдентификатор кодека/Информация : Picture based subtitle format used on DVDsЯзык : RomanianDefault : НетForced : Нет

Скриншоты


Резервные скриншоты


[teatrix.ru].t10966.torrent 
Торрент: Зарегистрирован [ 2015-12-07 05:05 ] · 64C26ACC88A69C4E59DF147C49CD16F42F0EF20B

Скачать .torrent

Скачать

12 KB

Статус: проверено
Скачан: 0 раз
Размер: 1.13 GB
terms.php



Быстрый ответ

Имя:

      
Для отправки сообщений необходимо включить JavaScript
Показать сообщения:    

Текущее время: 19-Янв 16:03

Часовой пояс: UTC + 3


Вы можете начинать темы
Вы можете отвечать на сообщения
Вы не можете редактировать свои сообщения
Вы не можете удалять свои сообщения
Вы не можете голосовать в опросах
Вы не можете прикреплять файлы к сообщениям
Вы можете скачивать файлы