Модуляции / Modulations (Iara Lee / Яра Ли) [1998, Документальный, музыка, DVDRip-AVC]


Статистика раздачи [Обновить пиров]
Размер:  806 MB   |    Зарегистрирован:  11 месяцев   |    Скачан:  2 раза
Сидов:  1  [  0 KB/s  ]   Личеров:  2  [  0 KB/s  ]   Подробная статистика пиров
 
   
 
 
 

[Цитировать]

Модуляции / Modulations
Дата/Год выпуска: 1998
Страна: США
Жанр: Документальный, музыка
Продолжительность: 01:13:36
Перевод: Авторский (одноголосый закадровый)
Доп. инфо о переводе: Алексей Крайнюченко
Русские субтитры: нет
Оригинальная аудиодорожка: английский
Режиссер: Iara Lee / Яра Ли
Описание: Документальный фильм об истории электронной музыки. Интервью с историческими персонажами, история возникновения таких стилей музыки как "house," "acid," "ambient," "Detroit," and "German drum and bass", всё это перемежается со съёмками в андеграундных клубах.
Доп. информация: Производство: Caipirinha Productions Inc.
качество: DVDRip
формат: MP4
Видео: MPEG-4, AVC, 720 х 412 (16:9), 1202 Кбит/сек, 23,976 кадра/сек
Аудио: AAC, 128 Кбит/сек, 48,0 КГц, 2 канала - английский
Аудио 2: MP3, 192 Кбит/сек, 44,1 КГц, 2 канала - русский (отдельным файлом)

MediaInfo

ОбщееФормат : MPEG-4Профиль формата : Base Media / Version 2Идентификатор кодека : mp42Размер файла : 705 МбайтПродолжительность : 1 ч. 13 м.Режим общего битрейта : ПеременныйОбщий поток : 1340 Кбит/секНазвание фильма : Modulations.Title1Альбом : ModulationsДата кодирования : UTC 2015-11-10 16:41:37Дата пометки : UTC 2015-11-10 16:51:26Программа кодирования : DVDFab 9.2.1.5covr : Unknown kind of value!
ВидеоИдентификатор : 1Формат : AVCФормат/Информация : Advanced Video CodecПрофиль формата : Main@L3Параметр CABAC формата : ДаПараметр ReFrames формата : 1 кадрИдентификатор кодека : avc1Идентификатор кодека/Информация : Advanced Video CodingПродолжительность : 1 ч. 13 м.Продолжительность оригинала : 1 ч. 13 м.Битрейт : 1202 Кбит/секШирина : 720 пикселейВысота : 412 пикселейСоотношение сторон : 16:9Режим частоты кадров : ПостоянныйЧастота кадров : 23,976 кадра/секЦветовое пространство : YUVСубдискретизация насыщенности : 4:2:0Битовая глубина : 8 битТип развёртки : ПрогрессивнаяБит/(Пиксели*Кадры) : 0.169Размер потока : 635 Мбайт (90%)Размер потока оригинала : 635 Мбайт (90%)Библиотека кодирования : x264 core 142Настройки программы : cabac=1 / ref=1 / deblock=1:0:0 / analyse=0x1:0x111 / me=umh / subme=6 / psy=0 / mixed_ref=0 / me_range=12 / chroma_me=1 / trellis=0 / 8x8dct=0 / cqm=0 / deadzone=21,11 / fast_pskip=1 / chroma_qp_offset=0 / threads=4 / lookahead_threads=1 / sliced_threads=0 / nr=0 / decimate=1 / interlaced=0 / bluray_compat=0 / constrained_intra=0 / bframes=0 / weightp=0 / keyint=24 / keyint_min=13 / scenecut=40 / intra_refresh=0 / rc=abr / mbtree=0 / bitrate=1202 / ratetol=1.0 / qcomp=0.60 / qpmin=0 / qpmax=69 / qpstep=4 / ip_ratio=1.40 / aq=1:1.00Дата кодирования : UTC 2015-11-10 16:41:37Дата пометки : UTC 2015-11-10 16:51:26Цветовой диапазон : LimitedОсновные цвета : BT.601 NTSCХарактеристики трансфера : BT.709Коэффициенты матрицы : BT.601
АудиоИдентификатор : 2Формат : AACФормат/Информация : Advanced Audio CodecПрофиль формата : LCИдентификатор кодека : 40Продолжительность : 1 ч. 13 м.Вид битрейта : ПеременныйБитрейт : 128 Кбит/секМаксимальный битрейт : 131 Кбит/секКаналы : 2 каналаРасположение каналов : Front: L RЧастота : 48,0 КГцМетод сжатия : С потерямиРазмер потока : 67,4 Мбайт (10%)Заголовок : English (aac 2.0)Язык : EnglishДата кодирования : UTC 2015-11-10 16:41:37Дата пометки : UTC 2015-11-10 16:51:26

Скриншоты

Семпл видео

http://multi-up.com/1077482

Сепмл аудиодорожки с переводом

http://multi-up.com/1077483
[teatrix.ru].t10967.torrent 
Торрент: Зарегистрирован [ 2015-12-07 05:05 ] · 177313A63920F788411E4437943479B500195FA2

Скачать .torrent

Скачать

16 KB

Статус: проверено
Скачан: 2 раз
Размер: 806 MB
terms.php



Быстрый ответ

Имя:

      
Для отправки сообщений необходимо включить JavaScript
Показать сообщения:    

Текущее время: 05-Дек 05:26

Часовой пояс: UTC + 3


Вы можете начинать темы
Вы можете отвечать на сообщения
Вы не можете редактировать свои сообщения
Вы не можете удалять свои сообщения
Вы не можете голосовать в опросах
Вы не можете прикреплять файлы к сообщениям
Вы можете скачивать файлы