Кинозвездa (30 выпусков) (Скотт Томас / Scott Thomas) [2012, Документальный цикл, DVB]


Статистика раздачи [Обновить пиров]
Размер:  10.37 GB   |    Зарегистрирован:  1 год   |    Скачан:  0 раз

Полного источника не было: Никогда

Личеров:  3  [  0 KB/s  ]   Подробная статистика пиров
 
   
 
 
 

[Цитировать]

Кинозвездa
Дата/Год выпуска: 2012
Страна: Австралия, Beyond Destribution
Жанр: Документальный цикл
Продолжительность: серия ~ 00:21:58
Перевод: Профессиональный (двухголосый закадровый)
Студия: ТПО Red Media
Русские субтитры: нет
Оригинальная аудиодорожка: нет
Режиссер: Скотт Томас / Scott Thomas
Телеканал: STV
Описание:
Узнать все о самых известных актерах Голливуда очень просто! В программе «Кинозвезды» проверенная информация и интересные факты из жизни мировых знаменитостей. Вы узнаете о главных фильмах в карьере Бреда Питта, об оскароносной роли Анджелины Джолли, а так же о непростой личной жизни Кристен Стюарт. Чем живут самые яркие актеры современности и каково это – быть секс-символом поколения – все это только в проекте «Кинозвезды»!
06.12.2015 _ добавил:
Лопес Дженнифер
Лохан Линдси
Макгрегор Юэн
Сазерленд Кифер
Смит Уилл
Траволта Джон
Уиллис Брюс
Уоттс Наоми

перезаливаем

>

Джоли Анджелина
Диас Кэмерон
Костнер Кевин
Крус Пенелопа
Лопес Дженнифер
Лохан Линдси
Лоу Джуд
Макгрегор Юэн
Майерс Майк
Мерфи Эдди
Райан Мег
Сазерленд Кифер
Смит Уилл
Сэндлер Адам
Траволта Джон
Уиллис Брюс
Уоттс Наоми
Фаррелл, Колин
Фостер Джоди
Хайек Сальма
Хэнкс Том
качество: DVB
формат: MPG
Видео: MPEG 2, 720x576, (4:3), 25 fps, 2 563 kbps
Аудио: MP2, 48 kHz, 2 ch, 192 kbps
Сэмпл: http://multi-up.com/1074030

MediaInfo

GeneralComplete name : C:\Кинозвезда\Костнер Кевин.mpgFormat : MPEG-PSFile size : 442 MiBDuration : 21mn 58sOverall bit rate mode : VariableOverall bit rate : 2 811 Kbps
VideoID : 224 (0xE0)Format : MPEG VideoFormat version : Version 2Format profile : Main@MainFormat settings, BVOP : YesFormat settings, Matrix : CustomFormat settings, GOP : VariableFormat settings, picture structure : FrameDuration : 21mn 58sBit rate mode : VariableBit rate : 2 563 KbpsMaximum bit rate : 15.0 MbpsWidth : 720 pixelsHeight : 576 pixelsDisplay aspect ratio : 4:3Frame rate : 25.000 fpsStandard : PALColor space : YUVChroma subsampling : 4:2:0Bit depth : 8 bitsScan type : InterlacedScan order : Top Field FirstCompression mode : LossyBits/(Pixel*Frame) : 0.247Time code of first frame : 00:00:00:00Time code source : Group of pictures headerGOP, Open/Closed : OpenGOP, Open/Closed of first frame : ClosedStream size : 403 MiB (91%)
AudioID : 192 (0xC0)Format : MPEG AudioFormat version : Version 1Format profile : Layer 2Duration : 21mn 58sBit rate mode : ConstantBit rate : 192 KbpsChannel(s) : 2 channelsSampling rate : 48.0 KHzCompression mode : LossyDelay relative to video : 5msStream size : 30.2 MiB (7%)

Скриншоты

[teatrix.ru].t10968.torrent 
Торрент: Зарегистрирован [ 2015-12-07 05:05 ] · 6D3BAB1CF56C59516FDB1FFC7AA71038E366901E

Скачать .torrent

Скачать

54 KB

Статус: проверено
Скачан: 0 раз
Размер: 10.37 GB
terms.php



Показать сообщения:    

Текущее время: 10-Дек 19:39

Часовой пояс: UTC + 3


Вы не можете начинать темы
Вы не можете отвечать на сообщения
Вы не можете редактировать свои сообщения
Вы не можете удалять свои сообщения
Вы не можете голосовать в опросах
Вы не можете прикреплять файлы к сообщениям
Вы можете скачивать файлы