Шоураннеры: Искусство создания ТВ-шоу / Showrunners: The Art of Running a TV Show (Дес Дойл / Des Doyle) [2014, Док. фильм, SATRip]


Статистика раздачи [Обновить пиров]
Размер:  533 MB   |    Зарегистрирован:  1 год   |    Скачан:  0 раз

Полного источника не было: Никогда

Личеров:  3  [  0 KB/s  ]   Подробная статистика пиров
 
   
 
 
 

[Цитировать]

Шоураннеры: Искусство создания ТВ-шоу / Showrunners: The Art of Running a TV Show
Дата/Год выпуска: 2014
Страна: Ирландия - США
Жанр: Док. фильм
Продолжительность: 01:27:48
Перевод: Субтитры
Русские субтитры: есть
Формат субтитров: hardsub (неотключаемые)
Оригинальная аудиодорожка: английский
Режиссер: Дес Дойл / Des Doyle
Описание: Известные голливудские шоураннеры" (и не только они) рассказывают о своей работе - создании популярных сериалов
SATRip от : Твид
Доп. информация: Любезно предоставлено клубом Fenix
Сэмпл: http://multi-up.com/1077971
качество: SATRip
формат: AVI
Видео: XviD, 712 kb/s, 640x480, 25 fps, 0.093 bits/pixel
Аудио: 0x0055(MP3) ID'd as MPEG-1 Layer 3, 128 kb/s (2/ch, stereo) CBR, 48000 Hz - Английский

MediaInfo

ОбщееПолное имя : D:\Fillms-1\Shourannery`.SAT-rip.by.Твид.fenixclub.aviФормат : AVIФормат/Информация : Audio Video InterleaveРазмер файла : 533 МбайтПродолжительность : 1 ч. 27 м.Режим общего битрейта : ПеременныйОбщий поток : 848 Кбит/сек
ВидеоИдентификатор : 0Формат : MPEG-4 VisualПрофиль формата : Advanced Simple@L5Параметр BVOP формата : 2Параметр QPel формата : НетПараметр GMC формата : Без точки переходаПараметр матрицы формата : Default (H.263)Идентификатор кодека : XVIDИдентификатор кодека/Подсказка : XviDПродолжительность : 1 ч. 27 м.Битрейт : 708 Кбит/секШирина : 640 пикселейВысота : 480 пикселейСоотношение сторон : 4:3Частота кадров : 25,000 кадров/секЦветовое пространство : YUVСубдискретизация насыщенности : 4:2:0Битовая глубина : 8 битТип развёртки : ПрогрессивнаяМетод сжатия : С потерямиБит/(Пиксели*Кадры) : 0.092Размер потока : 444 Мбайт (83%)Библиотека кодирования : XviD 1.1.2 (UTC 2006-11-01)
АудиоИдентификатор : 1Формат : MPEG AudioВерсия формата : Version 1Профиль формата : Layer 3Режим : Joint stereoРасширение режима : MS StereoИдентификатор кодека : 55Идентификатор кодека/Подсказка : MP3Продолжительность : 1 ч. 27 м.Вид битрейта : ПеременныйБитрейт : 128 Кбит/секКаналы : 2 каналаЧастота : 48,0 КГцМетод сжатия : С потерямиРазмер потока : 80,4 Мбайт (15%)Выравнивание : Соединение по промежуткамПродолжительность промежутка : 24 мс. (0,60 видеокадр)Время предзагрузки промежутка : 490 мс.

Скриншоты

[teatrix.ru].t10969.torrent 
Торрент: Зарегистрирован [ 2015-12-07 05:05 ] · D865EA7F15E5FDCB9A6FDBFB96270C39E3A3365B

Скачать .torrent

Скачать

11 KB

Статус: проверено
Скачан: 0 раз
Размер: 533 MB
terms.php



Показать сообщения:    

Текущее время: 11-Дек 07:16

Часовой пояс: UTC + 3


Вы не можете начинать темы
Вы не можете отвечать на сообщения
Вы не можете редактировать свои сообщения
Вы не можете удалять свои сообщения
Вы не можете голосовать в опросах
Вы не можете прикреплять файлы к сообщениям
Вы можете скачивать файлы