Зеленый свет / Project Greenlight / Сезон: 4 / Серии: 1-8 из 8 (Алекс Келеджян / Alex Keledjian) [2015, документальный, HDTVRip-AVC] MVO (Amedia) + Original + Rus Subs


Статистика раздачи [Обновить пиров]
Размер:  3.28 GB   |    Зарегистрирован:  1 год   |    Скачан:  0 раз

Полного источника не было: Никогда

Личеров:  2  [  0 KB/s  ]   Подробная статистика пиров
 
   
 
 
 

[Цитировать]

Зеленый свет - Четвёртый сезонProject Greenlight - Fourth Season- Год выпуска: 2015
Страна: США
Жанр: документальный-Продолжительность: 00:30:00
Перевод: Профессиональный (многоголосый закадровый) Amedia-Автор идеи: Алекс Келеджян / Alex Keledjian
Телеканал: HBO-Описание: Голливудская кино-кухня без прикрас и цензуры. Популярное реалити-шоу HBO о создании кино с Мэттом Деймоном и Беном Аффлеком. Режиссеру-новичку Джейсону Манну предстоит снять полнометражную версию своей комедийной короткометражки “Высший класс” под прицелом профессионалов. Деймон и Аффлек выступят в роли продюсеров и комментаторов. В качестве приглашенных звезд Манну будут помогать братья Фаррелли ("Тупой и еще тупее", "Я, снова я и Ирен", "Все без ума от Мэри").- -Sample-Качество: HDTVRip-AVC
Формат: MKV
Видео: x264, 1024x576 (16:9), 25fps, ~1500 kbps
Аудио #1: Russian 48.0 KHz, AC3, 2 channels, 192 Kbps |Amedia|
Аудио #2: English 48.0 KHz, AC3, 2 channels, 192 Kbps
Субтитры: русские (Amedia)-

MediaInfo

General
Unique ID : 241975168146645927969262873204955798111 (0xB60AB8E2F67472F5B4CFC7A2363FDA5F)
Complete name : G:\Project Greenlight Season 4 whip93\Project.Greenlight.S04E01.HDTVRip.x264.AC3.-whip93.mkv
Format : Matroska
Format version : Version 4 / Version 2
File size : 514 MiB
Duration : 38mn 4s
Overall bit rate : 1 887 Kbps
Movie name : Зелёный свет | Project Greenlight (S04E01) whip93
Encoded date : UTC 2015-11-09 20:10:20
Writing application : mkvmerge v6.1.0 ('Old Devil') built on Mar 4 2013 09:10:42
Writing library : libebml v1.3.0 + libmatroska v1.4.0
Attachements : cover.jpg
Video
ID : 1
Format : AVC
Format/Info : Advanced Video Codec
Format profile : High@L4.1
Format settings, CABAC : Yes
Format settings, ReFrames : 12 frames
Codec ID : V_MPEG4/ISO/AVC
Duration : 38mn 4s
Bit rate : 1 499 Kbps
Width : 1 024 pixels
Height : 576 pixels
Display aspect ratio : 16:9
Frame rate mode : Constant
Frame rate : 25.000 fps
Color space : YUV
Chroma subsampling : 4:2:0
Bit depth : 8 bits
Scan type : Progressive
Bits/(Pixel*Frame) : 0.102
Stream size : 399 MiB (78%)
Writing library : x264 core 142 r2431 ac76440
Encoding settings : cabac=1 / ref=12 / deblock=1:-2:-2 / analyse=0x3:0x113 / me=umh / subme=11 / psy=1 / psy_rd=1.00:0.03 / mixed_ref=1 / me_range=48 / chroma_me=1 / trellis=2 / 8x8dct=1 / cqm=0 / deadzone=21,11 / fast_pskip=1 / chroma_qp_offset=-6 / threads=12 / lookahead_threads=3 / sliced_threads=0 / nr=0 / decimate=1 / interlaced=0 / bluray_compat=0 / constrained_intra=0 / bframes=13 / b_pyramid=2 / b_adapt=2 / b_bias=0 / direct=1 / weightb=1 / open_gop=0 / weightp=2 / keyint=250 / keyint_min=23 / scenecut=40 / intra_refresh=0 / rc_lookahead=60 / rc=2pass / mbtree=1 / bitrate=1499 / ratetol=1.0 / qcomp=0.70 / qpmin=0 / qpmax=69 / qpstep=4 / cplxblur=20.0 / qblur=0.5 / vbv_maxrate=14000 / vbv_bufsize=14000 / nal_hrd=none / filler=0 / ip_ratio=1.40 / aq=1:0.80
Default : Yes
Forced : No
Audio #1
ID : 2
Format : AC-3
Format/Info : Audio Coding 3
Mode extension : CM (complete main)
Format settings, Endianness : Big
Codec ID : A_AC3
Duration : 38mn 4s
Bit rate mode : Constant
Bit rate : 192 Kbps
Channel(s) : 2 channels
Channel positions : Front: L R
Sampling rate : 48.0 KHz
Bit depth : 16 bits
Compression mode : Lossy
Stream size : 52.3 MiB (10%)
Language : Russian
Default : Yes
Forced : No
Audio #2
ID : 3
Format : AC-3
Format/Info : Audio Coding 3
Mode extension : CM (complete main)
Format settings, Endianness : Big
Codec ID : A_AC3
Duration : 38mn 4s
Bit rate mode : Constant
Bit rate : 192 Kbps
Channel(s) : 2 channels
Channel positions : Front: L R
Sampling rate : 48.0 KHz
Bit depth : 16 bits
Compression mode : Lossy
Stream size : 52.3 MiB (10%)
Language : English
Default : No
Forced : No
Text
ID : 4
Format : UTF-8
Codec ID : S_TEXT/UTF8
Codec ID/Info : UTF-8 Plain Text
Language : Russian
Default : No
Forced : No

Скриншоты

-
[teatrix.ru].t10977.torrent 
Торрент: Зарегистрирован [ 2015-12-07 05:05 ] · 5A1BD0F825D10E2F1E95D1E358504104E5518DA1

Скачать .torrent

Скачать

34 KB

Статус: проверено
Скачан: 0 раз
Размер: 3.28 GB
terms.php



Показать сообщения:    

Текущее время: 10-Дек 04:08

Часовой пояс: UTC + 3


Вы не можете начинать темы
Вы не можете отвечать на сообщения
Вы не можете редактировать свои сообщения
Вы не можете удалять свои сообщения
Вы не можете голосовать в опросах
Вы не можете прикреплять файлы к сообщениям
Вы можете скачивать файлы