Москва - Минск. Кинотранзит. Лариса Шепитько, Борис Плотников, Владимир Гостюхин (Елена Егорычева) [Россия, Республика Беларусь, 2007, Хроникально-документальный, DVB-AVC]


Статистика раздачи [Обновить пиров]
Размер:  1.31 GB   |    Зарегистрирован:  11 месяцев   |    Скачан:  0 раз

Полного источника не было: Никогда

Личеров:  2  [  0 KB/s  ]   Подробная статистика пиров
 
   
 
 
 

[Цитировать]

Москва - Минск. Кинотранзит
Год выпуска: 2007
Страна: Россия, Республика Беларусь
Жанр: Хроникально-документальный
Количество серий: три
Продолжительность серии: ~00:26:00
Перевод: Не требуется
Режиссер: Елена Егорычева
Телеканал: ТРО-Союза
Описание: Документальный цикл из трёх фильмов о режиссёре Ларисе Шепитько, о её пути в кинематографе, об истории создания художественного фильма "Восхождение", ставшего её главной работой.
Запись потока *.ts с наземного цифрового телеканала "Беларусь 3", ремукс в *.mkv программой VideoReDo.
Сэмпл: http://rusfolder.com/44399856
качество: DVB-AVC
формат: MKV
Видео: MPEG4 Video (H264) 720x576 (49:36) 25fps, 2 108 Kbps
Аудио: MPEG Audio 48000Hz stereo 256kbps

Список выпусков/серий

Москва - Минск. Кинотранзит_01_Лариса Шепитько (2007)
Москва - Минск. Кинотранзит_02_Борис Плотников (2007)
Москва - Минск. Кинотранзит_03_Владимир Гостюхин (2007)

MediaInfo

GeneralUnique ID : 188031310025297719679517046251592635743 (0x8D758356FBB2057CA273C552BD3C555F)Complete name : D:\Новая земля 2\001 Документальный фильмы\Личности\Москва - Минск. Кинотранзит\Москва - Минск. Кинотранзит_01_Лариса Шепитько (2007).mkvFormat : MatroskaFormat version : Version 2File size : 444 MiBDuration : 25mn 44sOverall bit rate : 2 412 KbpsWriting application : Lavf52.64.2Writing library : Lavf52.64.2
VideoID : 1Format : AVCFormat/Info : Advanced Video CodecFormat profile : Main@L3.0Format settings, CABAC : YesFormat settings, ReFrames : 4 framesFormat settings, GOP : M=4, N=24Codec ID : V_MPEG4/ISO/AVCDuration : 25mn 44sBit rate : 2 108 KbpsWidth : 720 pixelsHeight : 576 pixelsDisplay aspect ratio : 4:3Original display aspect ratio : 4:3Frame rate mode : ConstantFrame rate : 25.000 fpsStandard : PALColor space : YUVChroma subsampling : 4:2:0Bit depth : 8 bitsScan type : MBAFFScan order : Top Field FirstBits/(Pixel*Frame) : 0.203Stream size : 388 MiB (87%)Default : YesForced : NoColor primaries : BT.601 PALTransfer characteristics : BT.470 System B, BT.470 System GMatrix coefficients : BT.601Color range : Limited
AudioID : 2Format : MPEG AudioFormat version : Version 1Format profile : Layer 2Codec ID : A_MPEG/L2Codec ID/Hint : MP2Duration : 25mn 44sBit rate mode : ConstantBit rate : 256 KbpsChannel(s) : 2 channelsSampling rate : 48.0 KHzCompression mode : LossyStream size : 47.1 MiB (11%)Language : RussianDefault : YesForced : No
[teatrix.ru].t10979.torrent 
Торрент: Зарегистрирован [ 2015-12-07 05:05 ] · 1CFD126B67C518491B6C910D4D43877FF72D2754

Скачать .torrent

Скачать

14 KB

Статус: проверено
Скачан: 0 раз
Размер: 1.31 GB
terms.php



Показать сообщения:    

Текущее время: 04-Дек 15:18

Часовой пояс: UTC + 3


Вы не можете начинать темы
Вы не можете отвечать на сообщения
Вы не можете редактировать свои сообщения
Вы не можете удалять свои сообщения
Вы не можете голосовать в опросах
Вы не можете прикреплять файлы к сообщениям
Вы можете скачивать файлы