(Classical) Erwin Schulhoff - Solo Piano Works: Piano Sonatas Nos. 1 & 3; Burlesken; Grotesken; Pittoresken; Ironien - Margarete Babinsky - 2009, FLAC (image+.cue) lossless


 

[Цитировать]

Erwin Schulhoff - Solo Piano Works - Margarete Babinsky
Жанр: Classical
Страна-производитель диска: Germany
Год издания диска: 2009
Издатель (лейбл): Phoenix Edition
Дата записи: 2008
Аудиокодек: FLAC
Тип рипа: image+.cue
Битрейт аудио: lossless
Продолжительность: 132:45
Источник: собственный рип
Наличие сканов в содержимом раздачи: да
Треклист:
Erwin Schulhoff (1894-1942)

CD1

[1]-[4] Piano Sonata No.1
[5]-[9] Five Grotesques, Op.21
[10]-[14] Five Burlesques, Op.23
[15]-[19] Piano Sonata No.3

CD2

[1]-[5] Five Pictureques, Op.31
[6]-[11] Six Ironies, Op.34
Margarete Babinsky & Maria Lettberg piano four hands
[12]-[19] Jazz Improvisations
Margarete Babinsky & Andreas Wykydal two pianos
Исполнители:
Margarete Babinsky piano
Maria Lettberg piano
Andreas Wykydal piano

Лог создания рипа: CD1

Exact Audio Copy V1.0 beta 3 from 29. August 2011
EAC extraction logfile from 23. June 2015, 21:30
Margarete Babinsky / Schulhoff - Solo Piano Works - CD1
Used drive : HL-DT-STDVDRAM GU70N Adapter: 0 ID: 0
Read mode : SecureUtilize accurate stream : YesDefeat audio cache : YesMake use of C2 pointers : No
Read offset correction : 48Overread into Lead-In and Lead-Out : NoFill up missing offset samples with silence : YesDelete leading and trailing silent blocks : NoNull samples used in CRC calculations : YesUsed interface : Native Win32 interface for Win NT & 2000
Used output format : User Defined EncoderSelected bitrate : 128 kBit/sQuality : HighAdd ID3 tag : NoCommand line compressor : C:\Program Files (x86)\Exact Audio Copy\Flac\flac.exeAdditional command line options : -V -8 -T "Date=%year%" -T "Genre=%genre%" %source%
TOC of the extracted CD
Track | Start | Length | Start sector | End sector --------------------------------------------------------- 1 | 0:00.00 | 4:18.04 | 0 | 19353 2 | 4:18.04 | 4:51.01 | 19354 | 41179 3 | 9:09.05 | 2:45.66 | 41180 | 53620 4 | 11:54.71 | 3:38.68 | 53621 | 70038 5 | 15:33.64 | 2:51.67 | 70039 | 82930 6 | 18:25.56 | 2:46.63 | 82931 | 95443 7 | 21:12.44 | 5:38.15 | 95444 | 120808 8 | 26:50.59 | 4:45.53 | 120809 | 142236 9 | 31:36.37 | 4:38.28 | 142237 | 163114 10 | 36:14.65 | 2:10.39 | 163115 | 172903 11 | 38:25.29 | 2:56.06 | 172904 | 186109 12 | 41:21.35 | 4:53.38 | 186110 | 208122 13 | 46:14.73 | 5:48.59 | 208123 | 234281 14 | 52:03.57 | 4:40.06 | 234282 | 255287 15 | 56:43.63 | 5:54.26 | 255288 | 281863 16 | 62:38.14 | 3:48.13 | 281864 | 298976 17 | 66:26.27 | 1:33.40 | 298977 | 305991 18 | 67:59.67 | 2:59.59 | 305992 | 319475 19 | 70:59.51 | 3:32.27 | 319476 | 335402
Range status and errors
Selected range
Filename C:\temp\Schulhoff - Solo Piano Works - Babinsky\CD1\Schulhoff - Solo Piano Works - CD1.wav
Peak level 99.4 % Extraction speed 2.3 X Range quality 99.9 % Test CRC 2455F44E Copy CRC 2455F44E Copy OK
No errors occurred
AccurateRip summary
Track 1 not present in databaseTrack 2 not present in databaseTrack 3 not present in databaseTrack 4 not present in databaseTrack 5 not present in databaseTrack 6 not present in databaseTrack 7 not present in databaseTrack 8 not present in databaseTrack 9 not present in databaseTrack 10 not present in databaseTrack 11 not present in databaseTrack 12 not present in databaseTrack 13 not present in databaseTrack 14 not present in databaseTrack 15 not present in databaseTrack 16 not present in databaseTrack 17 not present in databaseTrack 18 not present in databaseTrack 19 not present in database
None of the tracks are present in the AccurateRip database
End of status report
==== Log checksum 877C8AAD28B455BB4E51EFF696D57A18C95CCE35371BFB7EEF5F54E217AEE27F ====

Лог создания рипа: CD2

Exact Audio Copy V1.0 beta 3 from 29. August 2011
EAC extraction logfile from 24. June 2015, 1:26
Margarete Babinsky / Schulhoff - Solo Piano Works - CD2
Used drive : HL-DT-STDVDRAM GU70N Adapter: 0 ID: 0
Read mode : SecureUtilize accurate stream : YesDefeat audio cache : YesMake use of C2 pointers : No
Read offset correction : 48Overread into Lead-In and Lead-Out : NoFill up missing offset samples with silence : YesDelete leading and trailing silent blocks : NoNull samples used in CRC calculations : YesUsed interface : Native Win32 interface for Win NT & 2000
Used output format : User Defined EncoderSelected bitrate : 128 kBit/sQuality : HighAdd ID3 tag : NoCommand line compressor : C:\Program Files (x86)\Exact Audio Copy\Flac\flac.exeAdditional command line options : -V -8 -T "Date=%year%" -T "Genre=%genre%" %source%
TOC of the extracted CD
Track | Start | Length | Start sector | End sector --------------------------------------------------------- 1 | 0:00.00 | 3:17.58 | 0 | 14832 2 | 3:17.58 | 4:51.22 | 14833 | 36679 3 | 8:09.05 | 1:41.14 | 36680 | 44268 4 | 9:50.19 | 3:14.28 | 44269 | 58846 5 | 13:04.47 | 5:15.18 | 58847 | 82489 6 | 18:19.65 | 1:43.04 | 82490 | 90218 7 | 20:02.69 | 1:26.45 | 90219 | 96713 8 | 21:29.39 | 2:52.21 | 96714 | 109634 9 | 24:21.60 | 1:16.12 | 109635 | 115346 10 | 25:37.72 | 2:06.66 | 115347 | 124862 11 | 27:44.63 | 3:15.73 | 124863 | 139560 12 | 31:00.61 | 4:01.50 | 139561 | 157685 13 | 35:02.36 | 2:22.58 | 157686 | 168393 14 | 37:25.19 | 3:33.43 | 168394 | 184411 15 | 40:58.62 | 3:37.26 | 184412 | 200712 16 | 44:36.13 | 3:16.17 | 200713 | 215429 17 | 47:52.30 | 3:19.00 | 215430 | 230354 18 | 51:11.30 | 3:42.36 | 230355 | 247040 19 | 54:53.66 | 3:21.25 | 247041 | 262140
Range status and errors
Selected range
Filename C:\temp\Schulhoff - Solo Piano Works - Babinsky\CD2\Schulhoff - Solo Piano Works - CD2.wav
Peak level 99.4 % Extraction speed 5.1 X Range quality 100.0 % Test CRC 34BDC15E Copy CRC 34BDC15E Copy OK
No errors occurred
AccurateRip summary
Track 1 not present in databaseTrack 2 not present in databaseTrack 3 not present in databaseTrack 4 not present in databaseTrack 5 not present in databaseTrack 6 not present in databaseTrack 7 not present in databaseTrack 8 not present in databaseTrack 9 not present in databaseTrack 10 not present in databaseTrack 11 not present in databaseTrack 12 not present in databaseTrack 13 not present in databaseTrack 14 not present in databaseTrack 15 not present in databaseTrack 16 not present in databaseTrack 17 not present in databaseTrack 18 not present in databaseTrack 19 not present in database
None of the tracks are present in the AccurateRip database
End of status report
==== Log checksum 9102E62F64638490A6BEA1BE2A79D6DF1EE7D258050AF2C9155DFFE3D8038D8C ====



Показать сообщения:    

Текущее время: 05-Дек 13:34

Часовой пояс: UTC + 3


Вы не можете начинать темы
Вы не можете отвечать на сообщения
Вы не можете редактировать свои сообщения
Вы не можете удалять свои сообщения
Вы не можете голосовать в опросах
Вы не можете прикреплять файлы к сообщениям
Вы не можете скачивать файлы