(Classical/Minimalism) Philip Glass - Beauty and the Beast, arragements for solo piano from the opera La Belle et la Bete [Michael Riesman] - 2015, FLAC (image+.cue) lossless


 

[Цитировать]

Philip Glass - Beauty and the Beast
Жанр: Classical/Minimalism
Страна-производитель диска: USA
Год издания диска: 2015
Издатель (лейбл): Orange Mountain Music
Номер по каталогу: 0105
Аудиокодек: FLAC
Тип рипа: image+.cue
Битрейт аудио: lossless
Продолжительность: 42'32"
Источник: собственный рип
Наличие сканов в содержимом раздачи: да
Треклист:
1. Overture
2. Beauty Goes to the Castle
3. Dinner at the Castle
4. A Walk in the Garden
5. The Beast's Confidence
6. Avenant's Passion
7. The Mirror
8. The Pavillon
9. The Metamorphosis
Исполнители:
Michael Riesman, piano-

Лог создания рипа

Exact Audio Copy V1.0 beta 4 from 7. December 2014
EAC extraction logfile from 9. November 2015, 23:11
Philip Glass / Beauty and the Beast
Used drive : TSSTcorpDVDWBD TS-LB23A Adapter: 1 ID: 0
Read mode : SecureUtilize accurate stream : YesDefeat audio cache : YesMake use of C2 pointers : No
Read offset correction : 6Overread into Lead-In and Lead-Out : NoFill up missing offset samples with silence : YesDelete leading and trailing silent blocks : NoNull samples used in CRC calculations : YesUsed interface : Native Win32 interface for Win NT & 2000
Used output format : User Defined EncoderSelected bitrate : 128 kBit/sQuality : HighAdd ID3 tag : YesCommand line compressor : C:\Program Files (x86)\Exact Audio Copy\Flac\flac.exeAdditional command line options : -T "COMMENT=Ripped by GFox" -V -8 %source%
TOC of the extracted CD
Track | Start | Length | Start sector | End sector --------------------------------------------------------- 1 | 0:00.00 | 1:17.47 | 0 | 5821 2 | 1:17.47 | 6:27.01 | 5822 | 34847 3 | 7:44.48 | 4:14.51 | 34848 | 53948 4 | 11:59.24 | 10:01.30 | 53949 | 99053 5 | 22:00.54 | 4:22.19 | 99054 | 118722 6 | 26:22.73 | 4:05.71 | 118723 | 137168 7 | 30:28.69 | 3:59.71 | 137169 | 155164 8 | 34:28.65 | 3:52.58 | 155165 | 172622 9 | 38:21.48 | 4:11.15 | 172623 | 191462
Range status and errors
Selected range
Filename D:\Downloads\Philip Glass - Beauty and the Beast.wav
Peak level 95.0 % Extraction speed 1.5 X Range quality 100.0 % Test CRC E5049296 Copy CRC E5049296 Copy OK
No errors occurred
AccurateRip summary
Track 1 not present in databaseTrack 2 not present in databaseTrack 3 not present in databaseTrack 4 not present in databaseTrack 5 not present in databaseTrack 6 not present in databaseTrack 7 not present in databaseTrack 8 not present in databaseTrack 9 not present in database
None of the tracks are present in the AccurateRip database
End of status report
==== Log checksum 7FBFFCAB893F457FAD450D2E9E4E7966AE16716562B094B9514DFB46F84EA309 ====
-Доп. информация: Авторская аранжировка для фортепиано соло музыки из оперы "Красавица и чудовище" на видеоряд одноименного фильма 1946 года режиссёра Жана Кокто (второй части т.н. оперной "Трилогии Кокто").-



Показать сообщения:    

Текущее время: 09-Дек 18:32

Часовой пояс: UTC + 3


Вы не можете начинать темы
Вы не можете отвечать на сообщения
Вы не можете редактировать свои сообщения
Вы не можете удалять свои сообщения
Вы не можете голосовать в опросах
Вы не можете прикреплять файлы к сообщениям
Вы не можете скачивать файлы