(organ) Les Organistes du Roy Soleil (L. Marchand;L. N. Clerambault;J. F. d\'Andrieu;A. Raison) - Pierre Bardon - 1989, FLAC (tracks+.cue) lossless


 

[Цитировать]

Les Organistes du Roy Soleil (Organists At The Court Of The Sun King) - Pierre Bardon
Жанр: organ
Страна-производитель диска: France
Год издания диска: 1989
Издатель (лейбл): Disques Pierre Verany
Номер по каталогу: PV 784011
Дата записи: 1983
Аудиокодек: FLAC
Тип рипа: tracks+.cue
Битрейт аудио: lossless
Продолжительность: 55:36
Источник: релизер
сайт-источник/ник/другое: hixius
Наличие сканов в содержимом раздачи: да
Треклист:
L. Marchand (1669-1732)
01. Grand Jeu en ut majeur
L. N. Clerambault (1676-1749)
Suite du Premier Ton
02. Grand plein jeu
03. Fugue
04. Duo
05. Trio
06. Basse et dessus de trompette
07. Récits de cromorne et de cornet separe
08. Dialogue sur les grands jeux
Suite du Deuxieme Ton
09. Plein jeu
10. Duo
11. Trio
12. Basse de cromorne
13. Flutes
14. Récit de nasard
15. Caprice sur les grands jeux
J. F. d'Andrieu (1681-1738)
16. Offertoire sur les grands jeux pour la Fete de Paques - Variation sur le theme "O Filii..."
A. Raison (1650-1719)
17. Offerte du Cinquieme Ton - "Le Vive-le-Roy des Parisiens"
Исполнители:
Pierre Bardon on the royal organ of Saint-Maximin-en-Provence

Лог создания рипа

Exact Audio Copy V1.0 beta 3 from 29. August 2011
EAC extraction logfile from 10. September 2015, 8:32
Various Composers / Les Organistes du Roy Soleil
Used drive : hp CDDVDW SN-208BB Adapter: 0 ID: 1
Read mode : SecureUtilize accurate stream : YesDefeat audio cache : YesMake use of C2 pointers : No
Read offset correction : 6Overread into Lead-In and Lead-Out : NoFill up missing offset samples with silence : YesDelete leading and trailing silent blocks : NoNull samples used in CRC calculations : YesUsed interface : Native Win32 interface for Win NT & 2000Gap handling : Appended to previous track
Used output format : User Defined EncoderSelected bitrate : 128 kBit/sQuality : HighAdd ID3 tag : NoCommand line compressor : C:\Program Files (x86)\Exact Audio Copy\Flac\flac.exeAdditional command line options : -8 -V -T "ARTIST=%artist%" -T "TITLE=%title%" -T "ALBUM=%albumtitle%" -T "DATE=%year%" -T "TRACKNUMBER=%tracknr%" -T "TOTALTRACKS=%numtracks%" -T "GENRE=%genre%" -T "ALBUMARTIST=%albumartist%" -T "ALBUM ARTIST=%albumartist%" -T "COMMENT=EAC Secure Mode, Test & Copy, AccurateRip, FLAC -8" %source%
TOC of the extracted CD
Track | Start | Length | Start sector | End sector --------------------------------------------------------- 1 | 0:00.33 | 7:39.25 | 33 | 34482 2 | 7:39.58 | 2:41.17 | 34483 | 46574 3 | 10:21.00 | 3:39.68 | 46575 | 63067 4 | 14:00.68 | 1:26.20 | 63068 | 69537 5 | 15:27.13 | 2:35.17 | 69538 | 81179 6 | 18:02.30 | 2:02.35 | 81180 | 90364 7 | 20:04.65 | 3:12.45 | 90365 | 104809 8 | 23:17.35 | 2:05.20 | 104810 | 114204 9 | 25:22.55 | 2:30.05 | 114205 | 125459 10 | 27:52.60 | 1:40.13 | 125460 | 132972 11 | 29:32.73 | 2:40.37 | 132973 | 145009 12 | 32:13.35 | 1:37.13 | 145010 | 152297 13 | 33:50.48 | 3:09.22 | 152298 | 166494 14 | 36:59.70 | 2:27.48 | 166495 | 177567 15 | 39:27.43 | 2:01.55 | 177568 | 186697 16 | 41:29.23 | 6:44.45 | 186698 | 217042 17 | 48:13.68 | 7:22.52 | 217043 | 250244
Track 1
Filename E:\EAC\01 - L. Marchand - Grand Jeu en ut majeur.wav
Pre-gap length 0:00:02.33
Peak level 86.1 % Extraction speed 2.5 X Track quality 100.0 % Test CRC 99D6BD8A Copy CRC 99D6BD8A Accurately ripped (confidence 1) [1EA9C89A] (AR v2) Copy OK
Track 2
Filename E:\EAC\02 - L. N. Clerambault - Suite du Premier Ton - Grand plein jeu.wav
Pre-gap length 0:00:02.15
Peak level 74.2 % Extraction speed 2.4 X Track quality 100.0 % Test CRC 6E04BB59 Copy CRC 6E04BB59 Accurately ripped (confidence 1) [A8B1F862] (AR v2) Copy OK
Track 3
Filename E:\EAC\03 - L. N. Clerambault - Suite du Premier Ton - Fugue.wav
Pre-gap length 0:00:00.65
Peak level 39.0 % Extraction speed 2.7 X Track quality 100.0 % Test CRC 69D2DB7E Copy CRC 69D2DB7E Accurately ripped (confidence 1) [76B29C03] (AR v2) Copy OK
Track 4
Filename E:\EAC\04 - L. N. Clerambault - Suite du Premier Ton - Duo.wav
Peak level 21.0 % Extraction speed 2.3 X Track quality 100.0 % Test CRC 990C7B79 Copy CRC 990C7B79 Accurately ripped (confidence 1) [7B94AFEC] (AR v2) Copy OK
Track 5
Filename E:\EAC\05 - L. N. Clerambault - Suite du Premier Ton - Trio.wav
Pre-gap length 0:00:00.33
Peak level 28.2 % Extraction speed 2.7 X Track quality 100.0 % Test CRC 355CE0C1 Copy CRC 355CE0C1 Accurately ripped (confidence 1) [FA550C78] (AR v2) Copy OK
Track 6
Filename E:\EAC\06 - L. N. Clerambault - Suite du Premier Ton - Basse et dessus de trompette.wav
Peak level 32.9 % Extraction speed 1.9 X Track quality 99.9 % Test CRC FE4AF1B2 Copy CRC FE4AF1B2 Accurately ripped (confidence 1) [3A5676F2] (AR v2) Copy OK
Track 7
Filename E:\EAC\07 - L. N. Clerambault - Suite du Premier Ton - Recits de cromorne et de cornet separe.wav
Pre-gap length 0:00:01.22
Peak level 31.0 % Extraction speed 3.1 X Track quality 100.0 % Test CRC A365F574 Copy CRC A365F574 Accurately ripped (confidence 1) [F1F0CE61] (AR v2) Copy OK
Track 8
Filename E:\EAC\08 - L. N. Clerambault - Suite du Premier Ton - Dialogue sur les grands jeux.wav
Pre-gap length 0:00:00.37
Peak level 81.9 % Extraction speed 2.9 X Track quality 100.0 % Test CRC 168D4DA9 Copy CRC 168D4DA9 Accurately ripped (confidence 1) [407F75E3] (AR v2) Copy OK
Track 9
Filename E:\EAC\09 - L. N. Clerambault - Suite du Deuxieme Ton - Plein jeu.wav
Pre-gap length 0:00:02.12
Peak level 65.8 % Extraction speed 2.2 X Track quality 99.9 % Test CRC 731D7AEA Copy CRC 731D7AEA Accurately ripped (confidence 1) [FAFA5F85] (AR v2) Copy OK
Track 10
Filename E:\EAC\10 - L. N. Clerambault - Suite du Deuxieme Ton - Duo.wav
Pre-gap length 0:00:00.72
Peak level 25.1 % Extraction speed 2.9 X Track quality 100.0 % Test CRC C8D061D9 Copy CRC C8D061D9 Accurately ripped (confidence 1) [F5AB217E] (AR v2) Copy OK
Track 11
Filename E:\EAC\11 - L. N. Clerambault - Suite du Deuxieme Ton - Trio.wav
Pre-gap length 0:00:00.55
Peak level 24.0 % Extraction speed 3.3 X Track quality 100.0 % Test CRC A654B4D4 Copy CRC A654B4D4 Accurately ripped (confidence 1) [7FEC28FA] (AR v2) Copy OK
Track 12
Filename E:\EAC\12 - L. N. Clerambault - Suite du Deuxieme Ton - Basse de cromorne.wav
Pre-gap length 0:00:02.22
Peak level 22.0 % Extraction speed 3.0 X Track quality 100.0 % Test CRC CAD5F463 Copy CRC CAD5F463 Accurately ripped (confidence 1) [906E4E4B] (AR v2) Copy OK
Track 13
Filename E:\EAC\13 - L. N. Clerambault - Suite du Deuxieme Ton - Flutes.wav
Pre-gap length 0:00:01.40
Peak level 28.7 % Extraction speed 3.6 X Track quality 100.0 % Test CRC A4DEBDA9 Copy CRC A4DEBDA9 Accurately ripped (confidence 1) [D0DED95F] (AR v2) Copy OK
Track 14
Filename E:\EAC\14 - L. N. Clerambault - Suite du Deuxieme Ton - Recit de nasard.wav
Peak level 22.7 % Extraction speed 3.5 X Track quality 100.0 % Test CRC D1E90D46 Copy CRC D1E90D46 Accurately ripped (confidence 1) [6BBD55C9] (AR v2) Copy OK
Track 15
Filename E:\EAC\15 - L. N. Clerambault - Suite du Deuxieme Ton - Caprice sur les grands jeux.wav
Pre-gap length 0:00:00.40
Peak level 86.6 % Extraction speed 3.4 X Track quality 100.0 % Test CRC 17506F5D Copy CRC 17506F5D Accurately ripped (confidence 1) [8F2000BA] (AR v2) Copy OK
Track 16
Filename E:\EAC\16 - J. F. d'Andrieu - Offertoire sur les grands jeux pour la Fete de Paques - Variation sur le theme 'O Filii...'.wav
Pre-gap length 0:00:02.05
Peak level 84.2 % Extraction speed 4.3 X Track quality 100.0 % Test CRC D44A1F8B Copy CRC D44A1F8B Accurately ripped (confidence 1) [E8C2A332] (AR v2) Copy OK
Track 17
Filename E:\EAC\17 - A. Raison - Offerte du Cinquieme Ton - 'Le Vive-le-Roy des Parisiens'.wav
Pre-gap length 0:00:01.43
Peak level 85.3 % Extraction speed 4.5 X Track quality 100.0 % Test CRC 8114ED70 Copy CRC 8114ED70 Accurately ripped (confidence 1) [2670B949] (AR v2) Copy OK
All tracks accurately ripped
No errors occurred
End of status report
==== Log checksum 104634894242522015F1FF3954B901085B14F691EBBE18A4E27E82CCD84A9A53 ====

Содержание индексной карты (.CUE)

REM GENRE ClassicalREM DATE 1989REM DISCID F30D0811REM COMMENT "ExactAudioCopy v1.0b3"PERFORMER "Various Composers"TITLE "Les Organistes du Roy Soleil"FILE "01 - L. Marchand - Grand Jeu en ut majeur.wav" WAVE TRACK 01 AUDIO TITLE "Grand Jeu en ut majeur" PERFORMER "L. Marchand" FLAGS PRE PREGAP 00:00:33 INDEX 01 00:00:00 TRACK 02 AUDIO TITLE "Suite du Premier Ton - Grand plein jeu" PERFORMER "L. N. Clerambault" FLAGS PRE INDEX 00 07:37:10FILE "02 - L. N. Clerambault - Suite du Premier Ton - Grand plein jeu.wav" WAVE INDEX 01 00:00:00 TRACK 03 AUDIO TITLE "Suite du Premier Ton - Fugue" PERFORMER "L. N. Clerambault" FLAGS PRE INDEX 00 02:40:27FILE "03 - L. N. Clerambault - Suite du Premier Ton - Fugue.wav" WAVE INDEX 01 00:00:00FILE "04 - L. N. Clerambault - Suite du Premier Ton - Duo.wav" WAVE TRACK 04 AUDIO TITLE "Suite du Premier Ton - Duo" PERFORMER "L. N. Clerambault" FLAGS PRE INDEX 01 00:00:00 TRACK 05 AUDIO TITLE "Suite du Premier Ton - Trio" PERFORMER "L. N. Clerambault" FLAGS PRE INDEX 00 01:25:62FILE "05 - L. N. Clerambault - Suite du Premier Ton - Trio.wav" WAVE INDEX 01 00:00:00FILE "06 - L. N. Clerambault - Suite du Premier Ton - Basse et dessus de trompette.wav" WAVE TRACK 06 AUDIO TITLE "Suite du Premier Ton - Basse et dessus de trompette" PERFORMER "L. N. Clerambault" FLAGS PRE INDEX 01 00:00:00 TRACK 07 AUDIO TITLE "Suite du Premier Ton - Recits de cromorne et de cornet separe" PERFORMER "L. N. Clerambault" FLAGS PRE INDEX 00 02:01:13FILE "07 - L. N. Clerambault - Suite du Premier Ton - Recits de cromorne et de cornet separe.wav" WAVE INDEX 01 00:00:00 TRACK 08 AUDIO TITLE "Suite du Premier Ton - Dialogue sur les grands jeux" PERFORMER "L. N. Clerambault" FLAGS PRE INDEX 00 03:12:08FILE "08 - L. N. Clerambault - Suite du Premier Ton - Dialogue sur les grands jeux.wav" WAVE INDEX 01 00:00:00 TRACK 09 AUDIO TITLE "Suite du Deuxieme Ton - Plein jeu" PERFORMER "L. N. Clerambault" FLAGS PRE INDEX 00 02:03:08FILE "09 - L. N. Clerambault - Suite du Deuxieme Ton - Plein jeu.wav" WAVE INDEX 01 00:00:00 TRACK 10 AUDIO TITLE "Suite du Deuxieme Ton - Duo" PERFORMER "L. N. Clerambault" FLAGS PRE INDEX 00 02:29:08FILE "10 - L. N. Clerambault - Suite du Deuxieme Ton - Duo.wav" WAVE INDEX 01 00:00:00 TRACK 11 AUDIO TITLE "Suite du Deuxieme Ton - Trio" PERFORMER "L. N. Clerambault" FLAGS PRE INDEX 00 01:39:33FILE "11 - L. N. Clerambault - Suite du Deuxieme Ton - Trio.wav" WAVE INDEX 01 00:00:00 TRACK 12 AUDIO TITLE "Suite du Deuxieme Ton - Basse de cromorne" PERFORMER "L. N. Clerambault" FLAGS PRE INDEX 00 02:38:15FILE "12 - L. N. Clerambault - Suite du Deuxieme Ton - Basse de cromorne.wav" WAVE INDEX 01 00:00:00 TRACK 13 AUDIO TITLE "Suite du Deuxieme Ton - Flutes" PERFORMER "L. N. Clerambault" FLAGS PRE INDEX 00 01:35:48FILE "13 - L. N. Clerambault - Suite du Deuxieme Ton - Flutes.wav" WAVE INDEX 01 00:00:00FILE "14 - L. N. Clerambault - Suite du Deuxieme Ton - Recit de nasard.wav" WAVE TRACK 14 AUDIO TITLE "Suite du Deuxieme Ton - Recit de nasard" PERFORMER "L. N. Clerambault" FLAGS PRE INDEX 01 00:00:00 TRACK 15 AUDIO TITLE "Suite du Deuxieme Ton - Caprice sur les grands jeux" PERFORMER "L. N. Clerambault" FLAGS PRE INDEX 00 02:27:08FILE "15 - L. N. Clerambault - Suite du Deuxieme Ton - Caprice sur les grands jeux.wav" WAVE INDEX 01 00:00:00 TRACK 16 AUDIO TITLE "Offertoire sur les grands jeux pour la Fete de Paques - Variation sur le them..." PERFORMER "J. F. d'Andrieu" FLAGS PRE INDEX 00 01:59:50FILE "16 - J. F. d'Andrieu - Offertoire sur les grands jeux pour la Fete de Paques - Variation sur le theme 'O Filii...'.wav" WAVE INDEX 01 00:00:00 TRACK 17 AUDIO TITLE "Offerte du Cinquieme Ton - 'Le Vive-le-Roy des Parisiens'" PERFORMER "A. Raison" FLAGS PRE INDEX 00 06:43:02FILE "17 - A. Raison - Offerte du Cinquieme Ton - 'Le Vive-le-Roy des Parisiens'.wav" WAVE INDEX 01 00:00:00

Лог проверки качества

AUDIOCHECKER v2.0 beta (build 457) - by Dester - opdester@freemail.hu~~~~~~~~~~~~~~~~~~~~~~~~~~~~~~~~~~-=== DO NOT EDIT THIS FILE! ===-
Path: ...\Les Organistes du Roy Soleil (Pierre Bardon) (Orgue de St-Maximin-en-Provence) (1989) [FLAC]
01 -=- 00 - Pregap.flac -=- CDDA (100%)02 -=- 01 - L. Marchand - Grand Jeu en ut majeur.flac -=- CDDA (100%)03 -=- 02 - L. N. Clerambault - Suite du Premier Ton - Grand plein jeu.flac -=- CDDA (100%)04 -=- 03 - L. N. Clerambault - Suite du Premier Ton - Fugue.flac -=- CDDA (100%)05 -=- 04 - L. N. Clerambault - Suite du Premier Ton - Duo.flac -=- CDDA (100%)06 -=- 05 - L. N. Clerambault - Suite du Premier Ton - Trio.flac -=- CDDA (99%)07 -=- 06 - L. N. Clerambault - Suite du Premier Ton - Basse et dessus de trompette.flac -=- CDDA (100%)08 -=- 07 - L. N. Clerambault - Suite du Premier Ton - Recits de cromorne et de cornet separe.flac -=- CDDA (100%)09 -=- 08 - L. N. Clerambault - Suite du Premier Ton - Dialogue sur les grands jeux.flac -=- CDDA (100%)10 -=- 09 - L. N. Clerambault - Suite du Deuxieme Ton - Plein jeu.flac -=- CDDA (100%)11 -=- 10 - L. N. Clerambault - Suite du Deuxieme Ton - Duo.flac -=- CDDA (100%)12 -=- 11 - L. N. Clerambault - Suite du Deuxieme Ton - Trio.flac -=- CDDA (100%)13 -=- 12 - L. N. Clerambault - Suite du Deuxieme Ton - Basse de cromorne.flac -=- CDDA (100%)14 -=- 13 - L. N. Clerambault - Suite du Deuxieme Ton - Flutes.flac -=- CDDA (100%)15 -=- 14 - L. N. Clerambault - Suite du Deuxieme Ton - Recit de nasard.flac -=- CDDA (100%)16 -=- 15 - L. N. Clerambault - Suite du Deuxieme Ton - Caprice sur les grands jeux.flac -=- CDDA (100%)17 -=- 16 - J. F. d'Andrieu - Offertoire sur les grands jeux pour la Fete de Paques - Variation sur le theme 'O Filii...'.flac -=- CDDA (100%)18 -=- 17 - A. Raison - Offerte du Cinquieme Ton - 'Le Vive-le-Roy des Parisiens'.flac -=- CDDA (100%)
Summary 99,94% CDDA
137382308

Скриншот спектра частот


-

об исполнителе

Pierre BARDON
Organist at Saint-Maximin-en-Provence since 1961, Pierre BARDON is one of those musicians whose open-mindedness and curiosity are as great as their talent.
He obtained a "premier prix " in the flute and chamber music classes at the Paris Conservatory, and now leaches at the Aix-en-Provence Conservatory.
He is a complete musician as regards both training and taste. He gives organ recitals all over France and abroad as well as recitals of French music in Saint-Maximin on one of the most important and precious instruments of the classical period. He is also wellknown for his flute playing in Great Britain, Austria and Italy.
Brought up to consider music as a "raison-d'etre", Pierre BARDON does not hesitate to devote most of his leisure hours to playing in concerts in association with the BARDON Family.



Показать сообщения:    

Текущее время: 03-Дек 16:37

Часовой пояс: UTC + 3


Вы не можете начинать темы
Вы не можете отвечать на сообщения
Вы не можете редактировать свои сообщения
Вы не можете удалять свои сообщения
Вы не можете голосовать в опросах
Вы не можете прикреплять файлы к сообщениям
Вы не можете скачивать файлы