(Classical, organ) Naji Hakim - Bach’orama; Jonquilles; Mit seinem Geist; Theotokos; Gershwinesca - Naji Hakim - 2012, FLAC (image+.cue) lossless


 

[Цитировать]

Naji Hakim - Bach’orama; Jonquilles; Mit seinem Geist; Theotokos; Gershwinesca - Naji Hakim
Жанр: Classical
Страна-производитель диска: UK
Год издания диска: 2012
Издатель (лейбл): Signum Records
Номер по каталогу: SIGCD284
Дата записи: 2011
Аудиокодек: FLAC
Тип рипа: image+.cue
Битрейт аудио: lossless
Продолжительность: 69:02
Источник: собственный рип
Наличие сканов в содержимом раздачи: да
Треклист:
Naji Hakim (b.1955)
[1] Bach’orama
Orgelfantasie über Themen von Johann Sebastian Bach
[2]-[4] Jonquilles
Trois Préludes Pascals
[5]-[12] Mit seinem Geist
Variationen über ”Ein’ feste Burg”
[13]-[19] Theotokos
[20] Salve Regina
[21] Gershwinesca
Исполнители:
Naji Hakim
The Stahlhuth-Jann Organ
St. Martin’s Church, Dudelange,
Grand Duché du Luxembourg

Лог создания рипа

Exact Audio Copy V1.0 beta 3 from 29. August 2011
EAC extraction logfile from 9. April 2015, 0:41
Naji Hakim / Hakim plays Hakim
Used drive : HL-DT-STDVDRAM GU70N Adapter: 0 ID: 0
Read mode : SecureUtilize accurate stream : YesDefeat audio cache : YesMake use of C2 pointers : No
Read offset correction : 48Overread into Lead-In and Lead-Out : NoFill up missing offset samples with silence : YesDelete leading and trailing silent blocks : NoNull samples used in CRC calculations : YesUsed interface : Native Win32 interface for Win NT & 2000
Used output format : User Defined EncoderSelected bitrate : 128 kBit/sQuality : HighAdd ID3 tag : NoCommand line compressor : C:\Program Files (x86)\Exact Audio Copy\Flac\flac.exeAdditional command line options : -V -8 -T "Date=%year%" -T "Genre=%genre%" %source%
TOC of the extracted CD
Track | Start | Length | Start sector | End sector --------------------------------------------------------- 1 | 0:00.00 | 7:33.01 | 0 | 33975 2 | 7:33.01 | 1:52.27 | 33976 | 42402 3 | 9:25.28 | 1:13.67 | 42403 | 47944 4 | 10:39.20 | 1:57.01 | 47945 | 56720 5 | 12:36.21 | 3:32.54 | 56721 | 72674 6 | 16:09.00 | 1:26.02 | 72675 | 79126 7 | 17:35.02 | 3:37.73 | 79127 | 95474 8 | 21:13.00 | 2:12.28 | 95475 | 105402 9 | 23:25.28 | 3:09.70 | 105403 | 119647 10 | 26:35.23 | 2:06.31 | 119648 | 129128 11 | 28:41.54 | 2:52.41 | 129129 | 142069 12 | 31:34.20 | 2:31.22 | 142070 | 153416 13 | 34:05.42 | 1:12.22 | 153417 | 158838 14 | 35:17.64 | 1:58.52 | 158839 | 167740 15 | 37:16.41 | 1:41.49 | 167741 | 175364 16 | 38:58.15 | 0:59.00 | 175365 | 179789 17 | 39:57.15 | 1:45.52 | 179790 | 187716 18 | 41:42.67 | 2:53.44 | 187717 | 200735 19 | 44:36.36 | 6:36.24 | 200736 | 230459 20 | 51:12.60 | 5:58.64 | 230460 | 257373 21 | 57:11.49 | 11:48.05 | 257374 | 310478
Range status and errors
Selected range
Filename C:\temp\Hakim Plays Hakim\Hakim plays Hakim.wav
Peak level 100.0 % Extraction speed 2.3 X Range quality 99.9 % Test CRC 63A9DA30 Copy CRC 63A9DA30 Copy OK
No errors occurred
AccurateRip summary
Track 1 accurately ripped (confidence 1) [4A055B43] (AR v1)Track 2 accurately ripped (confidence 1) [40892C2A] (AR v1)Track 3 accurately ripped (confidence 1) [4C718507] (AR v1)Track 4 accurately ripped (confidence 1) [9013A417] (AR v1)Track 5 accurately ripped (confidence 1) [8BF6C922] (AR v1)Track 6 accurately ripped (confidence 1) [B7250423] (AR v1)Track 7 accurately ripped (confidence 1) [B7214198] (AR v1)Track 8 accurately ripped (confidence 1) [2DD245B8] (AR v1)Track 9 accurately ripped (confidence 1) [06928244] (AR v1)Track 10 accurately ripped (confidence 1) [2CD71D84] (AR v1)Track 11 accurately ripped (confidence 1) [C6E94787] (AR v1)Track 12 accurately ripped (confidence 1) [8D298CD4] (AR v1)Track 13 accurately ripped (confidence 1) [9AFBFFB3] (AR v1)Track 14 accurately ripped (confidence 1) [7823C987] (AR v1)Track 15 accurately ripped (confidence 1) [D8A73437] (AR v1)Track 16 accurately ripped (confidence 1) [6C38F436] (AR v1)Track 17 accurately ripped (confidence 1) [30C5D033] (AR v1)Track 18 accurately ripped (confidence 1) [622A3FE1] (AR v1)Track 19 accurately ripped (confidence 1) [F5B2DC1A] (AR v1)Track 20 accurately ripped (confidence 1) [4C0F00DD] (AR v1)Track 21 accurately ripped (confidence 1) [19A55CD9] (AR v1)
All tracks accurately ripped
End of status report
==== Log checksum 9A2084551AB73AED46B6F71A08883B0DB865ADDC80F2019F3B4FCA57315819FD ====



Показать сообщения:    

Текущее время: 11-Дек 09:12

Часовой пояс: UTC + 3


Вы не можете начинать темы
Вы не можете отвечать на сообщения
Вы не можете редактировать свои сообщения
Вы не можете удалять свои сообщения
Вы не можете голосовать в опросах
Вы не можете прикреплять файлы к сообщениям
Вы не можете скачивать файлы