(Classical/Piano) Franz Schubert - Des fragments aux etoiles: Tanzen, Waltzes, Sonata D.960 [Shani Diluka] - 2015, FLAC (image+.cue) lossless


 

[Цитировать]

Franz Schubert - Des fragments aux etoiles
Жанр: Classical/Piano
Страна-производитель диска: Austria
Год издания диска: 2015
Издатель (лейбл): Mirare
Номер по каталогу: MIR 240
Дата записи: IX.2013
Аудиокодек: FLAC
Тип рипа: image+.cue
Битрейт аудио: lossless
Продолжительность: 58'06"
Источник: собственный рип
Наличие сканов в содержимом раздачи: да
Треклист:
01. Valse sentimentale No.13 Op.50 D.779
02. Deutsche Tanze No.5 Op.33 D.783
03. Valse No.2 Op.18 D.145
04. Valse No.8 Op.18 D.145
05. Deutsche Tanze No.14 & 15 Op.33 D.783
06. Deutsche Tanze No.5 Opus post 171 D.790
07. Valse noble No.10 Op.77 D.969
08. Originaltanze No.1 op.9 D.365
09. Deutsche Tanze No.3 & 4 D.366
10. Deutsche Tanze No.11 Opus post 171 D.790
11. Deutsche Tanze No.3 Opus post 171 D.790
12. Trauerwalzer Op.9 No.2 D.365
13. Valse No.10 Op.33 D.783
14. Melodie hongoroise Opus post 120 D.817
Sonate D.960
15. I. Molto moderato
16. II. Andante sostenuto
17. III. Allegro vivace con delicatezza
18. IV. Allegro ma non troppo
Исполнители:
Shani Diluka, piano-

Лог создания рипа

Exact Audio Copy V1.0 beta 4 from 7. December 2014
EAC extraction logfile from 2. December 2015, 0:23
Franz Schubert / Des fragments aux etoiles
Used drive : TSSTcorpDVDWBD TS-LB23A Adapter: 1 ID: 0
Read mode : SecureUtilize accurate stream : YesDefeat audio cache : YesMake use of C2 pointers : No
Read offset correction : 6Overread into Lead-In and Lead-Out : NoFill up missing offset samples with silence : YesDelete leading and trailing silent blocks : NoNull samples used in CRC calculations : YesUsed interface : Native Win32 interface for Win NT & 2000
Used output format : User Defined EncoderSelected bitrate : 128 kBit/sQuality : HighAdd ID3 tag : YesCommand line compressor : C:\Program Files (x86)\Exact Audio Copy\Flac\flac.exeAdditional command line options : -T "COMMENT=Ripped by GFox" -V -8 %source%
TOC of the extracted CD
Track | Start | Length | Start sector | End sector --------------------------------------------------------- 1 | 0:00.00 | 1:13.25 | 0 | 5499 2 | 1:13.25 | 0:40.50 | 5500 | 8549 3 | 1:54.00 | 0:43.57 | 8550 | 11831 4 | 2:37.57 | 0:46.49 | 11832 | 15330 5 | 3:24.31 | 1:22.67 | 15331 | 21547 6 | 4:47.23 | 1:24.08 | 21548 | 27855 7 | 6:11.31 | 0:43.64 | 27856 | 31144 8 | 6:55.20 | 0:45.00 | 31145 | 34519 9 | 7:40.20 | 1:33.31 | 34520 | 41525 10 | 9:13.51 | 0:49.06 | 41526 | 45206 11 | 10:02.57 | 0:46.46 | 45207 | 48702 12 | 10:49.28 | 0:44.43 | 48703 | 52045 13 | 11:33.71 | 1:19.44 | 52046 | 58014 14 | 12:53.40 | 3:18.15 | 58015 | 72879 15 | 16:11.55 | 19:38.36 | 72880 | 161265 16 | 35:50.16 | 10:08.41 | 161266 | 206906 17 | 45:58.57 | 4:06.18 | 206907 | 225374 18 | 50:05.00 | 8:01.25 | 225375 | 261474
Range status and errors
Selected range
Filename D:\Downloads\Franz Schubert - Des fragments aux etoiles.wav
Peak level 79.9 % Extraction speed 1.6 X Range quality 99.9 % Test CRC 1A72A3CE Copy CRC 1A72A3CE Copy OK
No errors occurred
AccurateRip summary
Track 1 not present in databaseTrack 2 not present in databaseTrack 3 not present in databaseTrack 4 not present in databaseTrack 5 not present in databaseTrack 6 not present in databaseTrack 7 not present in databaseTrack 8 not present in databaseTrack 9 not present in databaseTrack 10 not present in databaseTrack 11 not present in databaseTrack 12 not present in databaseTrack 13 not present in databaseTrack 14 not present in databaseTrack 15 not present in databaseTrack 16 not present in databaseTrack 17 not present in databaseTrack 18 not present in database
None of the tracks are present in the AccurateRip database
End of status report
==== Log checksum C3EDABE3023B4264B6F5B63DAD28E3B3205BBDE0DC402E82FCE0228E7236E4E6 ====
-Доп. информация: Шани Дилука (род.1976) - монакская пианистка родом из Шри Ланки. Весьма недурно исполняет тональную музыку: от романтизма до минимализма.-



Показать сообщения:    

Текущее время: 10-Дек 04:04

Часовой пояс: UTC + 3


Вы не можете начинать темы
Вы не можете отвечать на сообщения
Вы не можете редактировать свои сообщения
Вы не можете удалять свои сообщения
Вы не можете голосовать в опросах
Вы не можете прикреплять файлы к сообщениям
Вы не можете скачивать файлы