(organ) Organ Music From The Reformed Great Church of Debrecen - Peter Sirak (J.S. Bach;F. Liszt;J. Brahms;J. Langlais;B. Bartok;O. Messiaen) - 1997, FLAC (tracks+.cue) lossless


 

[Цитировать]

Organ Music From The Reformed Great Church of Debrecen - Péter Sirák
Жанр: organ
Страна-производитель диска: Hungary
Год издания диска: 1997
Издатель (лейбл): Psalmus Records
Номер по каталогу: OVA-009
Дата записи: 1997
Аудиокодек: FLAC
Тип рипа: tracks+.cue
Битрейт аудио: lossless
Продолжительность: 1:02:47
Источник: релизер
сайт-источник/ник/другое: hixius
Наличие сканов в содержимом раздачи: да
Треклист:
Johann Sebastian Bach
01. Preludium und Fugue E-Dur (BWV 566)
02. Preludium und Fugue E-Dur (BWV 566)
03. Preludium und Fugue E-Dur (BWV 566)
04. Preludium und Fugue E-Dur (BWV 566)
05. Largo aus der Sonate C-Dur (BWV 529)
06. Franz Liszt - B. Sulze: 13. Psalm
07. Johannes Brahms: Fuge As-moll
08. J. Langlais: Incantation pour un jour Saint
Bela Bartok - I. Koloss
Suite
09. I. Molto sostenuto
10. II. Allegro pesante
11. III. Adagio
12. IV. Allegro
13. V. Lento
14. VI. Con moto
15. VII. Allegro
O. Messiaen
La Nativité du Seigneur
16. II. Les Bergers
17. IX. Dieu parmi nous
Исполнители:
Péter Sirák - organ

Лог создания рипа

Exact Audio Copy V1.0 beta 3 from 29. August 2011
EAC extraction logfile from 11. October 2015, 15:37
Various Composers / Organ music from the Reformed Great Church of Debrecen
Used drive : HL-DT-STDVDRAM GH24NSB0 Adapter: 5 ID: 0
Read mode : SecureUtilize accurate stream : YesDefeat audio cache : YesMake use of C2 pointers : No
Read offset correction : 6Overread into Lead-In and Lead-Out : NoFill up missing offset samples with silence : YesDelete leading and trailing silent blocks : NoNull samples used in CRC calculations : YesUsed interface : Native Win32 interface for Win NT & 2000Gap handling : Appended to previous track
Used output format : User Defined EncoderSelected bitrate : 1024 kBit/sQuality : HighAdd ID3 tag : NoCommand line compressor : C:\Program Files (x86)\Exact Audio Copy\Flac\flac.exeAdditional command line options : -8 -V -T "ARTIST=%artist%" -T "TITLE=%title%" -T "ALBUM=%albumtitle%" -T "DATE=%year%" -T "TRACKNUMBER=%tracknr%" -T "TOTALTRACKS=%numtracks%" -T "GENRE=%genre%" -T "ALBUMARTIST=%albumartist%" -T "ALBUM ARTIST=%albumartist%" -T "COMMENT=EAC Secure Mode, Test & Copy, AccurateRip, FLAC -8" %source%
TOC of the extracted CD
Track | Start | Length | Start sector | End sector --------------------------------------------------------- 1 | 0:00.00 | 2:02.62 | 0 | 9211 2 | 2:02.62 | 4:27.38 | 9212 | 29274 3 | 6:30.25 | 0:49.00 | 29275 | 32949 4 | 7:19.25 | 3:24.00 | 32950 | 48249 5 | 10:43.25 | 5:50.00 | 48250 | 74499 6 | 16:33.25 | 10:50.37 | 74500 | 123286 7 | 27:23.62 | 6:40.55 | 123287 | 153341 8 | 34:04.42 | 4:45.30 | 153342 | 174746 9 | 38:49.72 | 1:14.00 | 174747 | 180296 10 | 40:03.72 | 0:44.00 | 180297 | 183596 11 | 40:47.72 | 1:40.45 | 183597 | 191141 12 | 42:28.42 | 1:43.30 | 191142 | 198896 13 | 44:11.72 | 1:14.00 | 198897 | 204446 14 | 45:25.72 | 0:45.38 | 204447 | 207859 15 | 46:11.35 | 1:01.37 | 207860 | 212471 16 | 47:12.72 | 6:19.38 | 212472 | 240934 17 | 53:32.35 | 9:14.27 | 240935 | 282511
Track 1
Filename C:\EAC\01 - J.S. Bach - Preludium und Fugue E-Dur (BWV 566).wav
Pre-gap length 0:00:02.00
Peak level 57.9 % Extraction speed 0.7 X Track quality 99.9 % Test CRC BBC758DD Copy CRC BBC758DD Accurately ripped (confidence 1) [3FF7C6C1] (AR v2) Copy OK
Track 2
Filename C:\EAC\02 - J.S. Bach - Preludium und Fugue E-Dur (BWV 566).wav
Peak level 22.6 % Extraction speed 1.1 X Track quality 100.0 % Test CRC CB00CA43 Copy CRC CB00CA43 Accurately ripped (confidence 1) [B028C98B] (AR v2) Copy OK
Track 3
Filename C:\EAC\03 - J.S. Bach - Preludium und Fugue E-Dur (BWV 566).wav
Peak level 52.0 % Extraction speed 0.8 X Track quality 100.0 % Test CRC 8568D04B Copy CRC 8568D04B Accurately ripped (confidence 1) [3CBC632D] (AR v2) Copy OK
Track 4
Filename C:\EAC\04 - J.S. Bach - Preludium und Fugue E-Dur (BWV 566).wav
Peak level 59.8 % Extraction speed 1.2 X Track quality 100.0 % Test CRC 8DC54363 Copy CRC 8DC54363 Accurately ripped (confidence 1) [22BCC45F] (AR v2) Copy OK
Track 5
Filename C:\EAC\05 - J.S. Bach - Largo aus der Sonate C-Dur (BWV 529).wav
Peak level 11.6 % Extraction speed 1.5 X Track quality 100.0 % Test CRC 66076A4B Copy CRC 66076A4B Accurately ripped (confidence 1) [AAE8849D] (AR v2) Copy OK
Track 6
Filename C:\EAC\06 - F. Liszt-B. Sulze - 13. Psalm.wav
Peak level 74.3 % Extraction speed 1.7 X Track quality 100.0 % Test CRC 7C008397 Copy CRC 7C008397 Accurately ripped (confidence 1) [67B0B0A6] (AR v2) Copy OK
Track 7
Filename C:\EAC\07 - J. Brahms - Fuge As-moll.wav
Peak level 18.5 % Extraction speed 1.7 X Track quality 99.9 % Test CRC DF2AEF48 Copy CRC DF2AEF48 Accurately ripped (confidence 1) [834EB7B8] (AR v2) Copy OK
Track 8
Filename C:\EAC\08 - J. Langlais - Incantation pour un jour Saint.wav
Peak level 84.9 % Extraction speed 1.9 X Track quality 100.0 % Test CRC 02323F38 Copy CRC 02323F38 Accurately ripped (confidence 1) [33A6B073] (AR v2) Copy OK
Track 9
Filename C:\EAC\09 - B. Bartok-I. Koloss - Suite - I. Molto sostenuto.wav
Peak level 21.3 % Extraction speed 1.1 X Track quality 99.8 % Test CRC C2964637 Copy CRC C2964637 Accurately ripped (confidence 1) [CC8FE045] (AR v2) Copy OK
Track 10
Filename C:\EAC\10 - B. Bartok-I. Koloss - Suite - II. Allegro pesante.wav
Peak level 32.3 % Extraction speed 1.2 X Track quality 100.0 % Test CRC 39A19E1D Copy CRC 39A19E1D Accurately ripped (confidence 1) [86E2C2BE] (AR v2) Copy OK
Track 11
Filename C:\EAC\11 - B. Bartok-I. Koloss - Suite - III. Adagio.wav
Peak level 19.1 % Extraction speed 1.2 X Track quality 99.8 % Test CRC C0E1667B Copy CRC C0E1667B Accurately ripped (confidence 1) [DEE07E75] (AR v2) Copy OK
Track 12
Filename C:\EAC\12 - B. Bartok-I. Koloss - Suite - IV. Allegro.wav
Peak level 45.5 % Extraction speed 1.7 X Track quality 100.0 % Test CRC 4D06AA45 Copy CRC 4D06AA45 Accurately ripped (confidence 1) [61007E2C] (AR v2) Copy OK
Track 13
Filename C:\EAC\13 - B. Bartok-I. Koloss - Suite - V. Lento.wav
Peak level 18.1 % Extraction speed 1.1 X Track quality 99.8 % Test CRC A19E3621 Copy CRC A19E3621 Accurately ripped (confidence 1) [B55F70D8] (AR v2) Copy OK
Track 14
Filename C:\EAC\14 - B. Bartok-I. Koloss - Suite - VI. Con moto.wav
Peak level 8.5 % Extraction speed 0.8 X Track quality 99.7 % Test CRC 0C7396DE Copy CRC 0C7396DE Accurately ripped (confidence 1) [ECF63484] (AR v2) Copy OK
Track 15
Filename C:\EAC\15 - B. Bartok-I. Koloss - Suite - VII. Allegro.wav
Peak level 52.7 % Extraction speed 1.4 X Track quality 100.0 % Test CRC 86F25341 Copy CRC 86F25341 Accurately ripped (confidence 1) [F0A65F15] (AR v2) Copy OK
Track 16
Filename C:\EAC\16 - O. Messiaen - La Nativite du Seigneur - II. Les Bergers.wav
Peak level 14.2 % Extraction speed 2.2 X Track quality 100.0 % Test CRC A6440934 Copy CRC A6440934 Accurately ripped (confidence 1) [8C663767] (AR v2) Copy OK
Track 17
Filename C:\EAC\17 - O. Messiaen - La Nativite du Seigneur - IX. Dieu parmi nous.wav
Peak level 94.2 % Extraction speed 2.4 X Track quality 100.0 % Test CRC 26667266 Copy CRC 26667266 Accurately ripped (confidence 1) [329A15E4] (AR v2) Copy OK
All tracks accurately ripped
No errors occurred
End of status report
==== Log checksum 2FFA66E2CD66638A890E371145ABBE4E13380C860047895487F76C16B96B78AB ====

Содержание индексной карты (.CUE)

REM GENRE ClassicalREM DATE 1997REM DISCID E50EB611REM COMMENT "ExactAudioCopy v1.0b3"PERFORMER "Various Composers"TITLE "Organ music from the Reformed Great Church of Debrecen"FILE "01 - J.S. Bach - Preludium und Fugue E-Dur (BWV 566).wav" WAVE TRACK 01 AUDIO TITLE "Preludium und Fugue E-Dur (BWV 566)" PERFORMER "J.S. Bach" INDEX 01 00:00:00FILE "02 - J.S. Bach - Preludium und Fugue E-Dur (BWV 566).wav" WAVE TRACK 02 AUDIO TITLE "Preludium und Fugue E-Dur (BWV 566)" PERFORMER "J.S. Bach" INDEX 01 00:00:00FILE "03 - J.S. Bach - Preludium und Fugue E-Dur (BWV 566).wav" WAVE TRACK 03 AUDIO TITLE "Preludium und Fugue E-Dur (BWV 566)" PERFORMER "J.S. Bach" INDEX 01 00:00:00FILE "04 - J.S. Bach - Preludium und Fugue E-Dur (BWV 566).wav" WAVE TRACK 04 AUDIO TITLE "Preludium und Fugue E-Dur (BWV 566)" PERFORMER "J.S. Bach" INDEX 01 00:00:00FILE "05 - J.S. Bach - Largo aus der Sonate C-Dur (BWV 529).wav" WAVE TRACK 05 AUDIO TITLE "Largo aus der Sonate C-Dur (BWV 529)" PERFORMER "J.S. Bach" INDEX 01 00:00:00FILE "06 - F. Liszt-B. Sulze - 13. Psalm.wav" WAVE TRACK 06 AUDIO TITLE "13. Psalm" PERFORMER "F. Liszt-B. Sulze" INDEX 01 00:00:00FILE "07 - J. Brahms - Fuge As-moll.wav" WAVE TRACK 07 AUDIO TITLE "Fuge As-moll" PERFORMER "J. Brahms" INDEX 01 00:00:00FILE "08 - J. Langlais - Incantation pour un jour Saint.wav" WAVE TRACK 08 AUDIO TITLE "Incantation pour un jour Saint" PERFORMER "J. Langlais" INDEX 01 00:00:00FILE "09 - B. Bartok-I. Koloss - Suite - I. Molto sostenuto.wav" WAVE TRACK 09 AUDIO TITLE "Suite - I. Molto sostenuto" PERFORMER "B. Bartok-I. Koloss " INDEX 01 00:00:00FILE "10 - B. Bartok-I. Koloss - Suite - II. Allegro pesante.wav" WAVE TRACK 10 AUDIO TITLE "Suite - II. Allegro pesante" PERFORMER "B. Bartok-I. Koloss " INDEX 01 00:00:00FILE "11 - B. Bartok-I. Koloss - Suite - III. Adagio.wav" WAVE TRACK 11 AUDIO TITLE "Suite - III. Adagio" PERFORMER "B. Bartok-I. Koloss " INDEX 01 00:00:00FILE "12 - B. Bartok-I. Koloss - Suite - IV. Allegro.wav" WAVE TRACK 12 AUDIO TITLE "Suite - IV. Allegro" PERFORMER "B. Bartok-I. Koloss " INDEX 01 00:00:00FILE "13 - B. Bartok-I. Koloss - Suite - V. Lento.wav" WAVE TRACK 13 AUDIO TITLE "Suite - V. Lento" PERFORMER "B. Bartok-I. Koloss " INDEX 01 00:00:00FILE "14 - B. Bartok-I. Koloss - Suite - VI. Con moto.wav" WAVE TRACK 14 AUDIO TITLE "Suite - VI. Con moto" PERFORMER "B. Bartok-I. Koloss " INDEX 01 00:00:00FILE "15 - B. Bartok-I. Koloss - Suite - VII. Allegro.wav" WAVE TRACK 15 AUDIO TITLE "Suite - VII. Allegro" PERFORMER "B. Bartok-I. Koloss " INDEX 01 00:00:00FILE "16 - O. Messiaen - La Nativite du Seigneur - II. Les Bergers.wav" WAVE TRACK 16 AUDIO TITLE "La Nativite du Seigneur - II. Les Bergers" PERFORMER "O. Messiaen" INDEX 01 00:00:00FILE "17 - O. Messiaen - La Nativite du Seigneur - IX. Dieu parmi nous.wav" WAVE TRACK 17 AUDIO TITLE "La Nativite du Seigneur - IX. Dieu parmi nous" PERFORMER "O. Messiaen" INDEX 01 00:00:00

Лог проверки качества

AUDIOCHECKER v2.0 beta (build 457) - by Dester - opdester@freemail.hu~~~~~~~~~~~~~~~~~~~~~~~~~~~~~~~~~~-=== DO NOT EDIT THIS FILE! ===-
Path: ...\Peter Sirak - Organ Music from the Reformed Great Church of Debrecen (1997) [FLAC]
01 -=- 01 - J.S. Bach - Preludium und Fugue E-Dur (BWV 566).flac -=- CDDA (100%)02 -=- 02 - J.S. Bach - Preludium und Fugue E-Dur (BWV 566).flac -=- ERROR03 -=- 03 - J.S. Bach - Preludium und Fugue E-Dur (BWV 566).flac -=- CDDA (58%)04 -=- 04 - J.S. Bach - Preludium und Fugue E-Dur (BWV 566).flac -=- CDDA (100%)05 -=- 05 - J.S. Bach - Largo aus der Sonate C-Dur (BWV 529).flac -=- CDDA (100%)06 -=- 06 - F. Liszt-B. Sulze - 13. Psalm.flac -=- MPEG (89%)07 -=- 07 - J. Brahms - Fuge As-moll.flac -=- CDDA (92%)08 -=- 08 - J. Langlais - Incantation pour un jour Saint.flac -=- CDDA (42%)09 -=- 09 - B. Bartok-I. Koloss - Suite - I. Molto sostenuto.flac -=- CDDA (100%)10 -=- 10 - B. Bartok-I. Koloss - Suite - II. Allegro pesante.flac -=- ERROR11 -=- 11 - B. Bartok-I. Koloss - Suite - III. Adagio.flac -=- CDDA (85%)12 -=- 12 - B. Bartok-I. Koloss - Suite - IV. Allegro.flac -=- CDDA (49%)13 -=- 13 - B. Bartok-I. Koloss - Suite - V. Lento.flac -=- CDDA (100%)14 -=- 14 - B. Bartok-I. Koloss - Suite - VI. Con moto.flac -=- CDDA (54%)15 -=- 15 - B. Bartok-I. Koloss - Suite - VII. Allegro.flac -=- CDDA (87%)16 -=- 16 - O. Messiaen - La Nativite du Seigneur - II. Les Bergers.flac -=- CDDA (100%)17 -=- 17 - O. Messiaen - La Nativite du Seigneur - IX. Dieu parmi nous.flac -=- MPEG (80%)
Summary 73,20% CDDA
211121444

Скриншот спектра частот


-

about Péter Sirák

Péter Sirák was born in Budapest in 1950. He graduated from the Hungarian Academy of Music in Budapest as organist in 1976, and as conductor in 1982. He finished his studies in church music in 1996. At his diploma concert he played Sándor Sxokolay's „Organ fantasy for two players". In 1976-77 he studied organ music in Weimar.
From 1978 to 1996 he was organist at the Franciscan Church in Pest, while in 1993 he was appointed choirmaster. In 1993 István Koloss' oratorio, 'Hymn to the Sun', was sung by his choir for the first time in Hungary. Since 1993 he has taught as senior lecturer at Zsámbék Catholic Teacher Training College Since 1994 he has also taught in the Department of Church Music at the Academy of Music in Budapest, he spent the academic year 1996-97 teaching in Japan.
With support from the Soros foundation he established and carried out, between 1985 and 1988, a national survey of organs in Hungary.
Péter Sirák gives regular concerts in Hungary and Germany, and has given performances in Britain, France, Switzerland, Sweden, Israel and Japan.
Two recordings of choir music with his organ accompaniment, and two CDs of organ music have been published: on one he plays the organ of the Great Reformed Church in Debrecen, on the other the organ of Tihany Abbey.



Показать сообщения:    

Текущее время: 11-Дек 07:14

Часовой пояс: UTC + 3


Вы не можете начинать темы
Вы не можете отвечать на сообщения
Вы не можете редактировать свои сообщения
Вы не можете удалять свои сообщения
Вы не можете голосовать в опросах
Вы не можете прикреплять файлы к сообщениям
Вы не можете скачивать файлы