(Classical) Ludwig van Beethoven — Complete Piano Sonatas (Annie Fischer) — 2001, FLAC (tracks+.cue) lossless


 

[Цитировать]

Complete Piano Sonatas-
Жанр: Classical
Страна-производитель комплекта: Венгрия
Издатель (лейбл): Hungaroton
Номер по каталогу: HCD 41003
Год издания комплекта: 2001
Годы записи фонограмм: 1977-1978
Композитор: Ludwig van Beethoven
Исполнитель: Annie Fischer
Аудио кодек: flac
Тип рипа: tracks+.cue
Битрейт аудио: lossless
Продолжительность: 10h02'55"
Источник: What.CD
Наличие сканов в содержимом раздачи: да-

Треклист

CD1 – 01h06'54"
(01-04) Piano Sonata № 12 As-Dur Op 26 [19'50"]
(05-07) Piano Sonata № 6 F-Dur Op 10/2 [11'27"]
(08-10) Piano Sonata № 31 As-Dur Op 110 [19'55"]
(11-14) Piano Sonata № 13 Es-Dur Op 27/1 [15'41"]-

EAC log

Exact Audio Copy V1.0 beta 3 from 29. August 2011
EAC extraction logfile from 16. January 2013, 12:16
Annie Fischer / Complete Beethoven Piano Sonatas
Used drive  : HL-DT-STDVDRAM GT33N   Adapter: 0  ID: 1
Read mode               : Secure
Utilize accurate stream : Yes
Defeat audio cache      : Yes
Make use of C2 pointers : No
Read offset correction                      : 103
Overread into Lead-In and Lead-Out          : No
Fill up missing offset samples with silence : Yes
Delete leading and trailing silent blocks   : No
Null samples used in CRC calculations       : Yes
Used interface                              : Native Win32 interface for Win NT & 2000
Gap handling                                : Appended to previous track
Used output format              : User Defined Encoder
Selected bitrate                : 128 kBit/s
Quality                         : High
Add ID3 tag                     : No
Command line compressor         : C:\Program Files (x86)\Exact Audio Copy\Flac\flac.exe
Additional command line options : -8 -V -T "ARTIST=%artist%" -T "TITLE=%title%" -T "ALBUM=%albumtitle%" -T "DATE=%year%" -T "TRACKNUMBER=%tracknr%" -T "TOTALTRACKS=%numtracks%" -T "GENRE=%genre%" -T "ALBUMARTIST=%albumartist%" -T "ALBUM ARTIST=%albumartist%" -T "COMMENT=EAC Secure Mode, Test & Copy, AccurateRip, FLAC -8" %source%
TOC of the extracted CD
     Track |   Start  |  Length  | Start sector | End sector
    ---------------------------------------------------------
        1  |  0:00.07 |  7:38.15 |         7    |    34371
        2  |  7:38.22 |  2:47.73 |     34372    |    46969
        3  | 10:26.20 |  6:33.25 |     46970    |    76469
        4  | 16:59.45 |  2:50.27 |     76470    |    89246
        5  | 19:49.72 |  5:09.08 |     89247    |   112429
        6  | 24:59.05 |  3:54.30 |    112430    |   130009
        7  | 28:53.35 |  2:24.17 |    130010    |   140826
        8  | 31:17.52 |  6:21.50 |    140827    |   169451
        9  | 37:39.27 |  2:21.45 |    169452    |   180071
       10  | 40:00.72 | 11:11.68 |    180072    |   230464
       11  | 51:12.65 |  5:24.05 |    230465    |   254769
       12  | 56:36.70 |  2:01.67 |    254770    |   263911
       13  | 58:38.62 |  2:49.15 |    263912    |   276601
       14  | 61:28.02 |  5:25.53 |    276602    |   301029
Track  1
     Filename C:\Rip\01 - Sonata No.12 in A-flat major, op.26 - I. Andante con variazioni.wav
     Pre-gap length  0:00:02.07
     Peak level 55.6 %
     Extraction speed 2.9 X
     Track quality 100.0 %
     Test CRC E2325395
     Copy CRC E2325395
     Accurately ripped (confidence 5)  [EDFE6BA5]  (AR v2)
     Copy OK
Track  2
     Filename C:\Rip\02 - II. Scherzo (Allegro molto).wav
     Pre-gap length  0:00:01.17
     Peak level 81.0 %
     Extraction speed 2.4 X
     Track quality 99.9 %
     Test CRC 7D479966
     Copy CRC 7D479966
     Accurately ripped (confidence 5)  [4FE6A8AE]  (AR v2)
     Copy OK
Track  3
     Filename C:\Rip\03 - III. Marcia funebre sulla morte d'un Eroe.wav
     Pre-gap length  0:00:02.73
     Peak level 66.4 %
     Extraction speed 3.5 X
     Track quality 100.0 %
     Test CRC BE214139
     Copy CRC BE214139
     Accurately ripped (confidence 5)  [4A7691F6]  (AR v2)
     Copy OK
Track  4
     Filename C:\Rip\04 - IV. Allegro.wav
     Pre-gap length  0:00:02.33
     Peak level 78.0 %
     Extraction speed 3.4 X
     Track quality 100.0 %
     Test CRC 4CC0D784
     Copy CRC 4CC0D784
     Accurately ripped (confidence 5)  [87623C34]  (AR v2)
     Copy OK
Track  5
     Filename C:\Rip\05 - Sonata No.6 in F major, op.10,2 - I. Allegro.wav
     Pre-gap length  0:00:05.25
     Peak level 66.0 %
     Extraction speed 3.5 X
     Track quality 99.9 %
     Test CRC 2CB490F5
     Copy CRC 2CB490F5
     Accurately ripped (confidence 5)  [CE1D2E48]  (AR v2)
     Copy OK
Track  6
     Filename C:\Rip\06 - II. Allegretto.wav
     Pre-gap length  0:00:03.30
     Peak level 56.0 %
     Extraction speed 3.4 X
     Track quality 99.9 %
     Test CRC B724B33F
     Copy CRC B724B33F
     Accurately ripped (confidence 5)  [E1DDA021]  (AR v2)
     Copy OK
Track  7
     Filename C:\Rip\07 - III. Presto.wav
     Pre-gap length  0:00:02.00
     Peak level 60.9 %
     Extraction speed 3.8 X
     Track quality 100.0 %
     Test CRC 24892641
     Copy CRC 24892641
     Accurately ripped (confidence 5)  [02A4827F]  (AR v2)
     Copy OK
Track  8
     Filename C:\Rip\08 - Sonata No.31 in A-flat major, op.110 - I. Moderato cantabile, molto espressivo.wav
     Pre-gap length  0:00:05.10
     Peak level 67.3 %
     Extraction speed 4.5 X
     Track quality 100.0 %
     Test CRC 16B4A4DC
     Copy CRC 16B4A4DC
     Accurately ripped (confidence 5)  [5B203B49]  (AR v2)
     Copy OK
Track  9
     Filename C:\Rip\09 - II. Allegro molto.wav
     Pre-gap length  0:00:01.65
     Peak level 67.8 %
     Extraction speed 4.0 X
     Track quality 100.0 %
     Test CRC C611F630
     Copy CRC C611F630
     Accurately ripped (confidence 5)  [9683A4D8]  (AR v2)
     Copy OK
Track 10
     Filename C:\Rip\10 - III. Adagio ma non troppo-Fuga (Allegro ma non troppo).wav
     Peak level 97.3 %
     Extraction speed 5.1 X
     Track quality 100.0 %
     Test CRC 411F6F22
     Copy CRC 411F6F22
     Accurately ripped (confidence 5)  [8D7D0227]  (AR v2)
     Copy OK
Track 11
     Filename C:\Rip\11 - Sonata No.13 in E-flat major, op.27,1 - I. Andante.wav
     Pre-gap length  0:00:05.28
     Peak level 65.3 %
     Extraction speed 5.2 X
     Track quality 100.0 %
     Test CRC 3729D49D
     Copy CRC 3729D49D
     Accurately ripped (confidence 5)  [1C80884E]  (AR v2)
     Copy OK
Track 12
     Filename C:\Rip\12 - II. Allegro molto e vivace.wav
     Peak level 84.2 %
     Extraction speed 4.5 X
     Track quality 100.0 %
     Test CRC DAB44781
     Copy CRC DAB44781
     Accurately ripped (confidence 5)  [A9003510]  (AR v2)
     Copy OK
Track 13
     Filename C:\Rip\13 - III. Adagio con espressione.wav
     Peak level 49.9 %
     Extraction speed 4.8 X
     Track quality 100.0 %
     Test CRC 779DF5F1
     Copy CRC 779DF5F1
     Accurately ripped (confidence 5)  [90B84050]  (AR v2)
     Copy OK
Track 14
     Filename C:\Rip\14 - IV. Allegro vivace.wav
     Peak level 90.7 %
     Extraction speed 5.1 X
     Track quality 99.9 %
     Test CRC 90BBC03D
     Copy CRC 90BBC03D
     Accurately ripped (confidence 5)  [C0925042]  (AR v2)
     Copy OK
All tracks accurately ripped
No errors occurred
End of status report
==== Log checksum 7071EB8EA776AEB9E1E4F6613CF27CA78ED4B31E74C5804CE4646A42142EDE7A ====

-

CUE

REM GENRE Classical
REM DATE 1978
REM DISCID B00FAD0E
REM COMMENT "ExactAudioCopy v1.0b3"
PERFORMER "Beethoven"
TITLE "Complete Piano Sonatas CD1"
FILE "01 PS 12 As-Dur Op 26 I. Andante con variazioni.flac" WAVE
  TRACK 01 AUDIO
    TITLE "Piano Sonata № 12 As-Dur Op 26 – I. Andante con variazioni.flac"
    PERFORMER "Beethoven"
    INDEX 01 00:00:00
FILE "02 PS 12 As-Dur Op 26 II. Scherzo (Allegro molto).flac" WAVE
  TRACK 02 AUDIO
    TITLE "Piano Sonata № 12 As-Dur Op 26 – II. Scherzo (Allegro molto)"
    PERFORMER "Beethoven"
    INDEX 01 00:00:00
FILE "03 PS 12 As-Dur Op 26 III. Marcia funebre sulla morte d'un Eroe.flac" WAVE
  TRACK 03 AUDIO
    TITLE "Piano Sonata № 12 As-Dur Op 26 – III. Marcia funebre sulla morte d'un Eroe"
    PERFORMER "Beethoven"
    INDEX 01 00:00:00
FILE "04 PS 12 As-Dur Op 26 IV. Allegro.flac" WAVE
  TRACK 04 AUDIO
    TITLE "Piano Sonata № 12 As-Dur Op 26 – IV. Allegro"
    PERFORMER "Beethoven"
    INDEX 01 00:00:00
FILE "05 PS 6 F-Dur Op 10-2 I. Allegro.flac" WAVE
  TRACK 05 AUDIO
    TITLE "Piano Sonata № 6 F-Dur Op 10/2 – I. Allegro"
    PERFORMER "Beethoven"
    INDEX 01 00:00:00
FILE "06 PS 6 F-Dur Op 10-2 II. Allegretto.flac" WAVE
  TRACK 06 AUDIO
    TITLE "Piano Sonata № 6 F-Dur Op 10/2 – II. Allegretto"
    PERFORMER "Beethoven"
    INDEX 01 00:00:00
FILE "07 PS 6 F-Dur Op 10-2 III. Presto.flac" WAVE
  TRACK 07 AUDIO
    TITLE "Piano Sonata № 6 F-Dur Op 10/2 – III. Presto"
    PERFORMER "Beethoven"
    INDEX 01 00:00:00
FILE "08 PS 31 As-Dur Op 110 I. Moderato cantabile, molto espressivo.flac" WAVE
  TRACK 08 AUDIO
    TITLE "Piano Sonata № 31 As-Dur Op 110 – I. Moderato cantabile, molto espressivo"
    PERFORMER "Beethoven"
    INDEX 01 00:00:00
FILE "09 PS 31 As-Dur Op 110 II. Allegro molto.flac" WAVE
  TRACK 09 AUDIO
    TITLE "Piano Sonata № 31 As-Dur Op 110 – II. Allegro molto"
    PERFORMER "Beethoven"
    INDEX 01 00:00:00
FILE "10 PS 31 As-Dur Op 110 III. Adagio ma non troppo - Fuga (Allegro ma non troppo).flac" WAVE
  TRACK 10 AUDIO
    TITLE "Piano Sonata № 31 As-Dur Op 110 – III. Adagio ma non troppo - Fuga (Allegro ma non troppo)"
    PERFORMER "Beethoven"
    INDEX 01 00:00:00
FILE "11 PS 13 Es-Dur Op 27-1 I. Andante.flac" WAVE
  TRACK 11 AUDIO
    TITLE "Piano Sonata № 13 Es-Dur Op 27/1 – I. Andante"
    PERFORMER "Beethoven"
    INDEX 01 00:00:00
FILE "12 PS 13 Es-Dur Op 27-1 II. Allegro molto e vivace.flac" WAVE
  TRACK 12 AUDIO
    TITLE "Piano Sonata № 13 Es-Dur Op 27/1 – II. Allegro molto e vivace"
    PERFORMER "Beethoven"
    INDEX 01 00:00:00
FILE "13 PS 13 Es-Dur Op 27-1 III. Adagio con espressione.flac" WAVE
  TRACK 13 AUDIO
    TITLE "Piano Sonata № 13 Es-Dur Op 27/1 – III. Adagio con espressione"
    PERFORMER "Beethoven"
    INDEX 01 00:00:00
FILE "14 PS 13 Es-Dur Op 27-1 IV. Allegro vivace.flac" WAVE
  TRACK 14 AUDIO
    TITLE "Piano Sonata № 13 Es-Dur Op 27/1 – IV. Allegro vivace"
    PERFORMER "Beethoven"
    INDEX 01 00:00:00
-CD2 – 01h00'41"
(01-03) Piano Sonata № 8 c-moll Op 13 «Pathetique» [18'19"]
(04-07) Piano Sonata № 3 C-Dur Op 2/3 [26'05"]
(08-11) Piano Sonata № 1 f-moll Op 2/1 [16'17"]-

EAC log

Exact Audio Copy V1.0 beta 3 from 29. August 2011
EAC extraction logfile from 16. January 2013, 13:15
Annie Fischer / Complete Beethoven Piano Sonatas
Used drive  : HL-DT-STDVDRAM GT33N   Adapter: 0  ID: 1
Read mode               : Secure
Utilize accurate stream : Yes
Defeat audio cache      : Yes
Make use of C2 pointers : No
Read offset correction                      : 103
Overread into Lead-In and Lead-Out          : No
Fill up missing offset samples with silence : Yes
Delete leading and trailing silent blocks   : No
Null samples used in CRC calculations       : Yes
Used interface                              : Native Win32 interface for Win NT & 2000
Gap handling                                : Appended to previous track
Used output format              : User Defined Encoder
Selected bitrate                : 128 kBit/s
Quality                         : High
Add ID3 tag                     : No
Command line compressor         : C:\Program Files (x86)\Exact Audio Copy\Flac\flac.exe
Additional command line options : -8 -V -T "ARTIST=%artist%" -T "TITLE=%title%" -T "ALBUM=%albumtitle%" -T "DATE=%year%" -T "TRACKNUMBER=%tracknr%" -T "TOTALTRACKS=%numtracks%" -T "GENRE=%genre%" -T "ALBUMARTIST=%albumartist%" -T "ALBUM ARTIST=%albumartist%" -T "COMMENT=EAC Secure Mode, Test & Copy, AccurateRip, FLAC -8" %source%
TOC of the extracted CD
     Track |   Start  |  Length  | Start sector | End sector
    ---------------------------------------------------------
        1  |  0:00.00 |  8:32.00 |         0    |    38399
        2  |  8:32.00 |  5:08.35 |     38400    |    61534
        3  | 13:40.35 |  4:38.22 |     61535    |    82406
        4  | 18:18.57 |  9:53.35 |     82407    |   126916
        5  | 28:12.17 |  7:48.18 |    126917    |   162034
        6  | 36:00.35 |  3:16.00 |    162035    |   176734
        7  | 39:16.35 |  5:07.10 |    176735    |   199769
        8  | 44:23.45 |  3:40.40 |    199770    |   216309
        9  | 48:04.10 |  5:17.05 |    216310    |   240089
       10  | 53:21.15 |  3:00.32 |    240090    |   253621
       11  | 56:21.47 |  4:19.35 |    253622    |   273081
Track  1
     Filename C:\Rip\01 - Sonata in C minor ''Pathetique'', Op 13 - I. Grave. Allegro di multo e con brio.wav
     Pre-gap length  0:00:02.00
     Peak level 97.5 %
     Extraction speed 2.9 X
     Track quality 100.0 %
     Test CRC 0F291060
     Copy CRC 0F291060
     Accurately ripped (confidence 4)  [8B4C8BE3]  (AR v2)
     Copy OK
Track  2
     Filename C:\Rip\02 - Sonata in C minor ''Pathetique'', Op 13 - II. Adagio cantabile.wav
     Pre-gap length  0:00:03.25
     Peak level 83.8 %
     Extraction speed 3.2 X
     Track quality 100.0 %
     Test CRC 24A52139
     Copy CRC 24A52139
     Accurately ripped (confidence 4)  [7CDC144D]  (AR v2)
     Copy OK
Track  3
     Filename C:\Rip\03 - Sonata in C minor ''Pathetique'', Op 13 - III. Rondo. Allegro.wav
     Pre-gap length  0:00:03.23
     Peak level 93.3 %
     Extraction speed 3.4 X
     Track quality 100.0 %
     Test CRC 024B226D
     Copy CRC 024B226D
     Accurately ripped (confidence 4)  [D38948C9]  (AR v2)
     Copy OK
Track  4
     Filename C:\Rip\04 - Sonata in C major, Op 2 No. 3 - I. Allegro con brio.wav
     Pre-gap length  0:00:07.50
     Peak level 97.6 %
     Extraction speed 4.0 X
     Track quality 100.0 %
     Test CRC 9949EF17
     Copy CRC 9949EF17
     Accurately ripped (confidence 4)  [ECC32685]  (AR v2)
     Copy OK
Track  5
     Filename C:\Rip\05 - Sonata in C major, Op 2 No. 3 - II. Adagio.wav
     Pre-gap length  0:00:03.52
     Peak level 91.2 %
     Extraction speed 4.4 X
     Track quality 100.0 %
     Test CRC 193EFE10
     Copy CRC 193EFE10
     Accurately ripped (confidence 4)  [C740D618]  (AR v2)
     Copy OK
Track  6
     Filename C:\Rip\06 - Sonata in C major, Op 2 No. 3 - III. Scherzo. Allegro.wav
     Pre-gap length  0:00:02.00
     Peak level 79.9 %
     Extraction speed 4.2 X
     Track quality 100.0 %
     Test CRC 4E91B18D
     Copy CRC 4E91B18D
     Accurately ripped (confidence 4)  [7C054E41]  (AR v2)
     Copy OK
Track  7
     Filename C:\Rip\07 - Sonata in C major, Op 2 No. 3 - IV. Allegro assai.wav
     Pre-gap length  0:00:03.25
     Peak level 91.1 %
     Extraction speed 4.6 X
     Track quality 100.0 %
     Test CRC 362E956B
     Copy CRC 362E956B
     Accurately ripped (confidence 4)  [69E257D1]  (AR v2)
     Copy OK
Track  8
     Filename C:\Rip\08 - Sonata in F minor, Op 2 No. 1 - I. Allegro.wav
     Pre-gap length  0:00:07.43
     Peak level 89.2 %
     Extraction speed 4.6 X
     Track quality 100.0 %
     Test CRC 1CE34849
     Copy CRC 1CE34849
     Accurately ripped (confidence 4)  [E6A02F26]  (AR v2)
     Copy OK
Track  9
     Filename C:\Rip\09 - Sonata in F minor, Op 2 No. 1 - II. Adagio.wav
     Pre-gap length  0:00:02.15
     Peak level 76.7 %
     Extraction speed 4.5 X
     Track quality 99.9 %
     Test CRC 1673A9D3
     Copy CRC 1673A9D3
     Accurately ripped (confidence 4)  [885DB421]  (AR v2)
     Copy OK
Track 10
     Filename C:\Rip\10 - Sonata in F minor, Op 2 No. 1 - III. Menuetto. Allegretto.wav
     Pre-gap length  0:00:01.65
     Peak level 80.4 %
     Extraction speed 4.7 X
     Track quality 100.0 %
     Test CRC 216E9DF8
     Copy CRC 216E9DF8
     Accurately ripped (confidence 4)  [842A44B4]  (AR v2)
     Copy OK
Track 11
     Filename C:\Rip\11 - Sonata in F minor, Op 2 No. 1 - IV. Prestissimo.wav
     Pre-gap length  0:00:01.15
     Peak level 87.1 %
     Extraction speed 5.1 X
     Track quality 100.0 %
     Test CRC 0C91CA8E
     Copy CRC 0C91CA8E
     Accurately ripped (confidence 4)  [10388396]  (AR v2)
     Copy OK
All tracks accurately ripped
No errors occurred
End of status report
---- CUETools DB Plugin V2.1.3
[CTDB TOCID: gvguDaLBqCz4pYiZJHvkrQ7TeYE-] found, Submit result: already submitted
[f925221a] (3/3) Accurately ripped
==== Log checksum 73D80193F8E06CF13DACF53D0DA2028C485D9EF55F022479B1564FA72CC07440 ====

-

CUE

REM GENRE Classical
REM DATE 1978
REM DISCID 8F0E390B
REM COMMENT "ExactAudioCopy v1.0b3"
PERFORMER "Beethoven"
TITLE "Complete Piano Sonatas CD2"
FILE "01 PS 8 c-moll Op 13 'Pathetique' I. Grave. Allegro di multo e con brio.flac" WAVE
  TRACK 01 AUDIO
    TITLE "Piano Sonata № 8 с-moll Op 13 «Pathetique» – I. Grave. Allegro di multo e con brio"
    PERFORMER "Beethoven"
    INDEX 01 00:00:00
FILE "02 PS 8 c-moll Op 13 'Pathetique' II. Adagio cantabile.flac" WAVE
  TRACK 02 AUDIO
    TITLE "Piano Sonata № 8 с-moll Op 13 «Pathetique» – II. Adagio cantabile"
    PERFORMER "Beethoven"
    INDEX 01 00:00:00
FILE "03 PS 8 c-moll Op 13 'Pathetique' III. Rondo. Allegro.flac" WAVE
  TRACK 03 AUDIO
    TITLE "Piano Sonata № 8 с-moll Op 13 «Pathetique» – III. Rondo. Allegro"
    PERFORMER "Beethoven"
    INDEX 01 00:00:00
FILE "04 PS 3 C-Dur Op 2-3 I. Allegro con brio.flac" WAVE
  TRACK 04 AUDIO
    TITLE "Piano Sonata № 3 C-Dur Op 2/3 – I. Allegro con brio"
    PERFORMER "Beethoven"
    INDEX 01 00:00:00
FILE "05 PS 3 C-Dur Op 2-3 II. Adagio.flac" WAVE
  TRACK 05 AUDIO
    TITLE "Piano Sonata № 3 C-Dur Op 2/3 – II. Adagio"
    PERFORMER "Beethoven"
    INDEX 01 00:00:00
FILE "06 PS 3 C-Dur Op 2-3 III. Scherzo. Allegro.flac" WAVE
  TRACK 06 AUDIO
    TITLE "Piano Sonata № 3 C-Dur Op 2/3 – III. Scherzo. Allegro"
    PERFORMER "Beethoven"
    INDEX 01 00:00:00
FILE "07 PS 3 C-Dur Op 2-3 IV. Allegro assai.flac" WAVE
  TRACK 07 AUDIO
    TITLE "Piano Sonata № 3 C-Dur Op 2/3 – IV. Allegro assai"
    PERFORMER "Beethoven"
    INDEX 01 00:00:00
FILE "08 PS 1 f-moll Op 2-1 I. Allegro.flac" WAVE
  TRACK 08 AUDIO
    TITLE "Piano Sonata № 1 f-moll Op 2/1 – I. Allegro"
    PERFORMER "Beethoven"
    INDEX 01 00:00:00
FILE "09 PS 1 f-moll Op 2-1 II. Adagio.flac" WAVE
  TRACK 09 AUDIO
    TITLE "Piano Sonata № 1 f-moll Op 2/1 – II. Adagio"
    PERFORMER "Beethoven"
    INDEX 01 00:00:00
FILE "10 PS 1 f-moll Op 2-1 III. Menuetto. Allegretto.flac" WAVE
  TRACK 10 AUDIO
    TITLE "Piano Sonata № 1 f-moll Op 2/1 – III. Menuetto. Allegretto"
    PERFORMER "Beethoven"
    INDEX 01 00:00:00
FILE "11 PS 1 f-moll Op 2-1 IV. Prestissimo.flac" WAVE
  TRACK 11 AUDIO
    TITLE "Piano Sonata № 1 f-moll Op 2/1 – IV. Prestissimo"
    PERFORMER "Beethoven"
    INDEX 01 00:00:00
-CD3 – 01h11'54"
(01-02) Piano Sonata № 32 c-moll Op 111 [25'53"]
(03-04) Piano Sonata № 20 G-Dur Op 49/2 [07'28"]
(05-08) Piano Sonata № 7 D-Dur Op 10/3 [23'33"]
(09-11) Piano Sonata № 10 G-Dur Op 14/2 [15'01"]-

EAC log

Exact Audio Copy V1.0 beta 3 from 29. August 2011
EAC extraction logfile from 16. January 2013, 15:25
Annie Fischer / Complete Beethoven Piano Sonatas
Used drive  : HL-DT-STDVDRAM GT33N   Adapter: 0  ID: 1
Read mode               : Secure
Utilize accurate stream : Yes
Defeat audio cache      : Yes
Make use of C2 pointers : No
Read offset correction                      : 103
Overread into Lead-In and Lead-Out          : No
Fill up missing offset samples with silence : Yes
Delete leading and trailing silent blocks   : No
Null samples used in CRC calculations       : Yes
Used interface                              : Native Win32 interface for Win NT & 2000
Gap handling                                : Appended to previous track
Used output format              : User Defined Encoder
Selected bitrate                : 128 kBit/s
Quality                         : High
Add ID3 tag                     : No
Command line compressor         : C:\Program Files (x86)\Exact Audio Copy\Flac\flac.exe
Additional command line options : -8 -V -T "ARTIST=%artist%" -T "TITLE=%title%" -T "ALBUM=%albumtitle%" -T "DATE=%year%" -T "TRACKNUMBER=%tracknr%" -T "TOTALTRACKS=%numtracks%" -T "GENRE=%genre%" -T "ALBUMARTIST=%albumartist%" -T "ALBUM ARTIST=%albumartist%" -T "COMMENT=EAC Secure Mode, Test & Copy, AccurateRip, FLAC -8" %source%
TOC of the extracted CD
     Track |   Start  |  Length  | Start sector | End sector
    ---------------------------------------------------------
        1  |  0:00.00 |  8:56.52 |         0    |    40251
        2  |  8:56.52 | 16:56.00 |     40252    |   116451
        3  | 25:52.52 |  4:21.28 |    116452    |   136054
        4  | 30:14.05 |  3:06.32 |    136055    |   150036
        5  | 33:20.37 |  6:57.05 |    150037    |   181316
        6  | 40:17.42 | 10:02.55 |    181317    |   226521
        7  | 50:20.22 |  2:37.03 |    226522    |   238299
        8  | 52:57.25 |  3:56.12 |    238300    |   256011
        9  | 56:53.37 |  6:41.25 |    256012    |   286111
       10  | 63:34.62 |  4:48.68 |    286112    |   307779
       11  | 68:23.55 |  3:30.20 |    307780    |   323549
Track  1
     Filename C:\Rip\01 - Sonata for Piano No. 32 in C minor, Op. 111- I. Maestoso. Allegro con brio ed appassionato.wav
     Pre-gap length  0:00:02.00
     Peak level 92.1 %
     Extraction speed 2.9 X
     Track quality 100.0 %
     Test CRC 072F5E15
     Copy CRC 072F5E15
     Accurately ripped (confidence 2)  [66879D8E]  (AR v2)
     Copy OK
Track  2
     Filename C:\Rip\02 - Sonata for Piano No. 32 in C minor, Op. 111- II. Arietta. Adagio molto semplice e cantabile.wav
     Pre-gap length  0:00:02.62
     Peak level 91.6 %
     Extraction speed 3.8 X
     Track quality 100.0 %
     Test CRC 3A38F80B
     Copy CRC 3A38F80B
     Accurately ripped (confidence 2)  [2D4DAF9C]  (AR v2)
     Copy OK
Track  3
     Filename C:\Rip\03 - Sonata for Piano No. 20 in G major, Op. 49 No. 2- I. Allegro ma non troppo.wav
     Pre-gap length  0:00:09.07
     Peak level 93.0 %
     Extraction speed 3.9 X
     Track quality 100.0 %
     Test CRC F393999C
     Copy CRC F393999C
     Accurately ripped (confidence 2)  [7183EAA4]  (AR v2)
     Copy OK
Track  4
     Filename C:\Rip\04 - Sonata for Piano No. 20 in G major, Op. 49 No. 2- II. Tempo di menuetto.wav
     Pre-gap length  0:00:01.68
     Peak level 48.3 %
     Extraction speed 3.8 X
     Track quality 100.0 %
     Test CRC DF87EE53
     Copy CRC DF87EE53
     Accurately ripped (confidence 2)  [FEDEF281]  (AR v2)
     Copy OK
Track  5
     Filename C:\Rip\05 - Sonata for Piano No. 7 in D major, Op. 10 No. 3- I. Presto.wav
     Pre-gap length  0:00:06.15
     Peak level 94.6 %
     Extraction speed 4.5 X
     Track quality 100.0 %
     Test CRC 62F111B7
     Copy CRC 62F111B7
     Accurately ripped (confidence 2)  [BEC807C8]  (AR v2)
     Copy OK
Track  6
     Filename C:\Rip\06 - Sonata for Piano No. 7 in D major, Op. 10 No. 3- II. Largo e mesto.wav
     Pre-gap length  0:00:01.65
     Peak level 95.3 %
     Extraction speed 4.9 X
     Track quality 100.0 %
     Test CRC FC174696
     Copy CRC FC174696
     Accurately ripped (confidence 2)  [EB50A778]  (AR v2)
     Copy OK
Track  7
     Filename C:\Rip\07 - Sonata for Piano No. 7 in D major, Op. 10 No. 3- III. Menuetto. Allegro.wav
     Pre-gap length  0:00:01.62
     Peak level 72.6 %
     Extraction speed 3.7 X
     Track quality 99.9 %
     Test CRC 256999ED
     Copy CRC 256999ED
     Accurately ripped (confidence 2)  [949D3D40]  (AR v2)
     Copy OK
Track  8
     Filename C:\Rip\08 - Sonata for Piano No. 7 in D major, Op. 10 No. 3- IV. Rondo. Allegro.wav
     Pre-gap length  0:00:00.28
     Peak level 87.8 %
     Extraction speed 4.8 X
     Track quality 100.0 %
     Test CRC C6050BB8
     Copy CRC C6050BB8
     Accurately ripped (confidence 2)  [5B22BF64]  (AR v2)
     Copy OK
Track  9
     Filename C:\Rip\09 - Sonata for Piano No. 10 in G major, Op. 14 No. 2- I. Allegro.wav
     Pre-gap length  0:00:05.15
     Peak level 88.4 %
     Extraction speed 5.2 X
     Track quality 100.0 %
     Test CRC D41F58F0
     Copy CRC D41F58F0
     Accurately ripped (confidence 2)  [8110ECA4]  (AR v2)
     Copy OK
Track 10
     Filename C:\Rip\10 - Sonata for Piano No. 10 in G major, Op. 14 No. 2- II. Andante.wav
     Pre-gap length  0:00:01.65
     Peak level 88.8 %
     Extraction speed 5.2 X
     Track quality 100.0 %
     Test CRC C11FE5FD
     Copy CRC C11FE5FD
     Accurately ripped (confidence 2)  [B90C194D]  (AR v2)
     Copy OK
Track 11
     Filename C:\Rip\11 - Sonata for Piano No. 10 in G major, Op. 14 No. 2- III. Scherzo. Allegro assai.wav
     Pre-gap length  0:00:00.63
     Peak level 77.7 %
     Extraction speed 5.2 X
     Track quality 100.0 %
     Test CRC EB7143D7
     Copy CRC EB7143D7
     Accurately ripped (confidence 2)  [D034E220]  (AR v2)
     Copy OK
All tracks accurately ripped
No errors occurred
End of status report
---- CUETools DB Plugin V2.1.3
[CTDB TOCID: .uNeVN9_91ki30PwUerHOaIkwQo-] found, Submit result: .uNeVN9_91ki30PwUerHOaIkwQo- has been confirmed
[2481592b] (1/1) Accurately ripped
==== Log checksum 12AD8A84D99B6CFFB88841F15E19C5184B3382C8DE6223A7864E9D6E47EC64D3 ====

-

CUE

REM GENRE Classical
REM DATE 1978
REM DISCID 8910DA0B
REM COMMENT "ExactAudioCopy v1.0b3"
PERFORMER "Beethoven"
TITLE "Complete Piano Sonatas CD3"
FILE "01 PS 32 c-moll Op 111 I. Maestoso. Allegro con brio ed appassionato.flac" WAVE
  TRACK 01 AUDIO
    TITLE "Piano Sonata № 32 с-moll Op 111 – I. Maestoso. Allegro con brio ed appassionato"
    PERFORMER "Beethoven"
    INDEX 01 00:00:00
FILE "02 PS 32 c-moll Op 111 II. Arietta. Adagio molto semplice e cantabile.flac" WAVE
  TRACK 02 AUDIO
    TITLE "Piano Sonata № 32 с-moll Op 111 – II. Arietta. Adagio molto semplice e cantabile"
    PERFORMER "Beethoven"
    INDEX 01 00:00:00
FILE "03 PS 20 G-Dur Op 49-2 I. Allegro ma non troppo.flac" WAVE
  TRACK 03 AUDIO
    TITLE "Piano Sonata № 20 G-Dur Op 49/2 – I. Allegro ma non troppo"
    PERFORMER "Beethoven"
    INDEX 01 00:00:00
FILE "04 PS 20 G-Dur Op 49-2 II. Tempo di menuetto.flac" WAVE
  TRACK 04 AUDIO
    TITLE "Piano Sonata № 20 G-Dur Op 49/2 – II. Tempo di menuetto"
    PERFORMER "Beethoven"
    INDEX 01 00:00:00
FILE "05 PS 7 D-Dur Op 10-3 I. Presto.flac" WAVE
  TRACK 05 AUDIO
    TITLE "Piano Sonata № 7 D-Dur Op 10-3 – I. Presto"
    PERFORMER "Beethoven"
    INDEX 01 00:00:00
FILE "06 PS 7 D-Dur Op 10-3 II. Largo e mesto.flac" WAVE
  TRACK 06 AUDIO
    TITLE "Piano Sonata № 7 D-Dur Op 10-3 – II. Largo e mesto"
    PERFORMER "Beethoven"
    INDEX 01 00:00:00
FILE "07 PS 7 D-Dur Op 10-3 III. Menuetto. Allegro.flac" WAVE
  TRACK 07 AUDIO
    TITLE "Piano Sonata № 7 D-Dur Op 10-3 – III. Menuetto. Allegro"
    PERFORMER "Beethoven"
    INDEX 01 00:00:00
FILE "08 PS 7 D-Dur Op 10-3 IV. Rondo. Allegro.flac" WAVE
  TRACK 08 AUDIO
    TITLE "Piano Sonata № 7 D-Dur Op 10-3 – IV. Rondo. Allegro"
    PERFORMER "Beethoven"
    INDEX 01 00:00:00
FILE "09 PS 10 G-Dur Op 14-2 I. Allegro.flac" WAVE
  TRACK 09 AUDIO
    TITLE "Piano Sonata № 10 G-Dur Op 14/2 – I. Allegro"
    PERFORMER "Beethoven"
    INDEX 01 00:00:00
FILE "10 PS 10 G-Dur Op 14-2 II. Andante.flac" WAVE
  TRACK 10 AUDIO
    TITLE "Piano Sonata № 10 G-Dur Op 14/2 – II. Andante"
    PERFORMER "Beethoven"
    INDEX 01 00:00:00
FILE "11 PS 10 G-Dur Op 14-2 III. Scherzo. Allegro assai.flac" WAVE
  TRACK 11 AUDIO
    TITLE "Piano Sonata № 10 G-Dur Op 14/2 – III. Scherzo. Allegro assai"
    PERFORMER "Beethoven"
    INDEX 01 00:00:00
-CD4 – 01h07'10"
(01-04) Piano Sonata № 18 Es-Dur Op 31/3 [21'53"]
(05-08) Piano Sonata № 29 B-Dur Op 106 «Hammerklavier» [45'18"]-

EAC log

Exact Audio Copy V1.0 beta 3 from 29. August 2011
EAC extraction logfile from 17. January 2013, 10:46
Annie Fischer / Complete Beethoven Piano Sonatas
Used drive  : HL-DT-STDVDRAM GT33N   Adapter: 0  ID: 1
Read mode               : Secure
Utilize accurate stream : Yes
Defeat audio cache      : Yes
Make use of C2 pointers : No
Read offset correction                      : 103
Overread into Lead-In and Lead-Out          : No
Fill up missing offset samples with silence : Yes
Delete leading and trailing silent blocks   : No
Null samples used in CRC calculations       : Yes
Used interface                              : Native Win32 interface for Win NT & 2000
Gap handling                                : Appended to previous track
Used output format              : User Defined Encoder
Selected bitrate                : 128 kBit/s
Quality                         : High
Add ID3 tag                     : No
Command line compressor         : C:\Program Files (x86)\Exact Audio Copy\Flac\flac.exe
Additional command line options : -8 -V -T "ARTIST=%artist%" -T "TITLE=%title%" -T "ALBUM=%albumtitle%" -T "DATE=%year%" -T "TRACKNUMBER=%tracknr%" -T "TOTALTRACKS=%numtracks%" -T "GENRE=%genre%" -T "ALBUMARTIST=%albumartist%" -T "ALBUM ARTIST=%albumartist%" -T "COMMENT=EAC Secure Mode, Test & Copy, AccurateRip, FLAC -8" %source%
TOC of the extracted CD
     Track |   Start  |  Length  | Start sector | End sector
    ---------------------------------------------------------
        1  |  0:00.00 |  8:05.62 |         0    |    36436
        2  |  8:05.62 |  4:55.23 |     36437    |    58584
        3  | 13:01.10 |  4:04.22 |     58585    |    76906
        4  | 17:05.32 |  4:47.28 |     76907    |    98459
        5  | 21:52.60 | 11:04.52 |     98460    |   148311
        6  | 32:57.37 |  2:56.63 |    148312    |   161574
        7  | 35:54.25 | 19:51.27 |    161575    |   250926
        8  | 55:45.52 | 11:24.50 |    250927    |   302276
Track  1
     Filename C:\Rip\01 - Be. PianoSonata No. 18, Op. 31,3 E flat major I. Allegro.wav
     Pre-gap length  0:00:02.00
     Peak level 96.5 %
     Extraction speed 2.9 X
     Track quality 100.0 %
     Test CRC 714D4631
     Copy CRC 714D4631
     Accurately ripped (confidence 4)  [20CE0ABC]  (AR v2)
     Copy OK
Track  2
     Filename C:\Rip\02 - Be. PianoSonata No. 18, Op. 31,3 E flat major II. Scherzo.wav
     Pre-gap length  0:00:03.27
     Peak level 92.9 %
     Extraction speed 3.2 X
     Track quality 100.0 %
     Test CRC 01911061
     Copy CRC 01911061
     Accurately ripped (confidence 4)  [0D3F3851]  (AR v2)
     Copy OK
Track  3
     Filename C:\Rip\03 - Be. PianoSonata No. 18, Op. 31,3 E flat major III. Menuetto.wav
     Pre-gap length  0:00:02.05
     Peak level 76.2 %
     Extraction speed 3.3 X
     Track quality 100.0 %
     Test CRC 332EC0F5
     Copy CRC 332EC0F5
     Accurately ripped (confidence 4)  [21784338]  (AR v2)
     Copy OK
Track  4
     Filename C:\Rip\04 - Be. PianoSonata No. 18, Op. 31,3 E flat major IV. Presto con fuoco.wav
     Pre-gap length  0:00:02.02
     Peak level 94.1 %
     Extraction speed 3.6 X
     Track quality 100.0 %
     Test CRC 5A20EF62
     Copy CRC 5A20EF62
     Accurately ripped (confidence 4)  [4268914B]  (AR v2)
     Copy OK
Track  5
     Filename C:\Rip\05 - Be. PianoSonata No. 29, Op. 106 B flat major I. Allegro.wav
     Pre-gap length  0:00:09.55
     Peak level 95.1 %
     Extraction speed 4.3 X
     Track quality 100.0 %
     Test CRC 5E84CD38
     Copy CRC 5E84CD38
     Accurately ripped (confidence 4)  [05F04375]  (AR v2)
     Copy OK
Track  6
     Filename C:\Rip\06 - Be. PianoSonata No. 29, Op. 106 B flat major II. Scherzo.wav
     Pre-gap length  0:00:03.25
     Peak level 92.6 %
     Extraction speed 3.9 X
     Track quality 100.0 %
     Test CRC CD1F6214
     Copy CRC CD1F6214
     Accurately ripped (confidence 4)  [35CCF553]  (AR v2)
     Copy OK
Track  7
     Filename C:\Rip\07 - Be. PianoSonata No. 29, Op. 106 B flat major III. Adagio sostenuto.wav
     Pre-gap length  0:00:03.65
     Peak level 94.5 %
     Extraction speed 5.1 X
     Track quality 100.0 %
     Test CRC 61FB4E26
     Copy CRC 61FB4E26
     Accurately ripped (confidence 4)  [7DC9569C]  (AR v2)
     Copy OK
Track  8
     Filename C:\Rip\08 - Be. PianoSonata No. 29, Op. 106 B flat major IV. Largo - Allegro risoluto.wav
     Peak level 87.5 %
     Extraction speed 5.6 X
     Track quality 100.0 %
     Test CRC F4E69FEB
     Copy CRC F4E69FEB
     Accurately ripped (confidence 4)  [A8BDAEBB]  (AR v2)
     Copy OK
All tracks accurately ripped
No errors occurred
End of status report
---- CUETools DB Plugin V2.1.3
[CTDB TOCID: 5GMDx_4me9FavGWRltv5p4X5jDQ-] found, Submit result: 5GMDx_4me9FavGWRltv5p4X5jDQ- has been confirmed
[30401755] (1/1) Accurately ripped
==== Log checksum 7CAC618A3A69DFFCC2D02E16BEA3D59C98AC0DBD2C25900484D559059AA1F85A ====

-

CUE

REM GENRE Classical
REM DATE 1978
REM DISCID 730FBE08
REM COMMENT "ExactAudioCopy v1.0b3"
PERFORMER "Beethoven"
TITLE "Complete Piano Sonatas CD4"
FILE "01 PS 18 Es-Dur Op 31-3 I. Allegro.flac" WAVE
  TRACK 01 AUDIO
    TITLE "Piano Sonata № 18 Es-Dur Op 31/3 – I. Allegro"
    PERFORMER "Beethoven"
    INDEX 01 00:00:00
FILE "02 PS 18 Es-Dur Op 31-3 II. Scherzo.flac" WAVE
  TRACK 02 AUDIO
    TITLE "Piano Sonata № 18 Es-Dur Op 31/3 – II. Scherzo"
    PERFORMER "Beethoven"
    INDEX 01 00:00:00
FILE "03 PS 18 Es-Dur Op 31-3 III. Menuetto.flac" WAVE
  TRACK 03 AUDIO
    TITLE "Piano Sonata № 18 Es-Dur Op 31/3 – III. Menuetto"
    PERFORMER "Beethoven"
    INDEX 01 00:00:00
FILE "04 PS 18 Es-Dur Op 31-3 IV. Presto con fuoco.flac" WAVE
  TRACK 04 AUDIO
    TITLE "Piano Sonata № 18 Es-Dur Op 31/3 – IV. Presto con fuoco"
    PERFORMER "Beethoven"
    INDEX 01 00:00:00
FILE "05 PS 29 B-Dur Op 106 'Hammerklavier' I. Allegro.flac" WAVE
  TRACK 05 AUDIO
    TITLE "Piano Sonata № 29 B-Dur Op 106 «Hammerklavier» – I. Allegro"
    PERFORMER "Beethoven"
    INDEX 01 00:00:00
FILE "06 PS 29 B-Dur Op 106 'Hammerklavier' II. Scherzo.flac" WAVE
  TRACK 06 AUDIO
    TITLE "Piano Sonata № 29 B-Dur Op 106 «Hammerklavier» – II. Scherzo"
    PERFORMER "Beethoven"
    INDEX 01 00:00:00
FILE "07 PS 29 B-Dur Op 106 'Hammerklavier' III. Adagio sostenuto.flac" WAVE
  TRACK 07 AUDIO
    TITLE "Piano Sonata № 29 B-Dur Op 106 «Hammerklavier» – III. Adagio sostenuto"
    PERFORMER "Beethoven"
    INDEX 01 00:00:00
FILE "08 PS 29 B-Dur Op 106 'Hammerklavier' IV. Largo - Allegro risoluto.flac" WAVE
  TRACK 08 AUDIO
    TITLE "Piano Sonata № 29 B-Dur Op 106 «Hammerklavier» – IV. Largo - Allegro risoluto"
    PERFORMER "Beethoven"
    INDEX 01 00:00:00
-CD5 – 01h00'57"
(01-02) Piano Sonata № 27 e-moll Op 90 [12'20"]
(03-05) Piano Sonata № 9 E-Dur Op 14/1 [13'01"]
(06-08) Piano Sonata № 14 cis-moll Op 27/2 [16'08"]
(09-12) Piano Sonata № 28 A-Dur Op 101 [19'29"]-

EAC log

Exact Audio Copy V1.0 beta 3 from 29. August 2011
EAC extraction logfile from 18. January 2013, 10:18
Annie Fischer / Complete Beethoven Piano Sonatas
Used drive  : HL-DT-STDVDRAM GT33N   Adapter: 0  ID: 1
Read mode               : Secure
Utilize accurate stream : Yes
Defeat audio cache      : Yes
Make use of C2 pointers : No
Read offset correction                      : 103
Overread into Lead-In and Lead-Out          : No
Fill up missing offset samples with silence : Yes
Delete leading and trailing silent blocks   : No
Null samples used in CRC calculations       : Yes
Used interface                              : Native Win32 interface for Win NT & 2000
Gap handling                                : Appended to previous track
Used output format              : User Defined Encoder
Selected bitrate                : 128 kBit/s
Quality                         : High
Add ID3 tag                     : No
Command line compressor         : C:\Program Files (x86)\Exact Audio Copy\Flac\flac.exe
Additional command line options : -8 -V -T "ARTIST=%artist%" -T "TITLE=%title%" -T "ALBUM=%albumtitle%" -T "DATE=%year%" -T "TRACKNUMBER=%tracknr%" -T "TOTALTRACKS=%numtracks%" -T "GENRE=%genre%" -T "ALBUMARTIST=%albumartist%" -T "ALBUM ARTIST=%albumartist%" -T "COMMENT=EAC Secure Mode, Test & Copy, AccurateRip, FLAC -8" %source%
TOC of the extracted CD
     Track |   Start  |  Length  | Start sector | End sector
    ---------------------------------------------------------
        1  |  0:00.00 |  5:09.35 |         0    |    23209
        2  |  5:09.35 |  7:10.25 |     23210    |    55484
        3  | 12:19.60 |  5:57.17 |     55485    |    82276
        4  | 18:17.02 |  3:48.00 |     82277    |    99376
        5  | 22:05.02 |  3:14.65 |     99377    |   113991
        6  | 25:19.67 |  6:37.60 |    113992    |   143826
        7  | 31:57.52 |  2:08.73 |    143827    |   153499
        8  | 34:06.50 |  7:20.70 |    153500    |   186569
        9  | 41:27.45 |  4:03.17 |    186570    |   204811
       10  | 45:30.62 |  5:30.23 |    204812    |   229584
       11  | 51:01.10 |  2:41.45 |    229585    |   241704
       12  | 53:42.55 |  7:14.20 |    241705    |   274274
Track  1
     Filename C:\Rip\01 - Sonata No.27 in E minor, op.90 - I. Con vivacita e sempre con sentimento ed espressione.wav
     Pre-gap length  0:00:02.00
     Peak level 85.4 %
     Extraction speed 2.7 X
     Track quality 100.0 %
     Test CRC 29E8C6CE
     Copy CRC 29E8C6CE
     Accurately ripped (confidence 4)  [1AFAA2DF]  (AR v2)
     Copy OK
Track  2
     Filename C:\Rip\02 - Sonata No.27 in E minor, op.90 - II. Non troppo vivace e cantabile assai.wav
     Peak level 84.6 %
     Extraction speed 3.2 X
     Track quality 100.0 %
     Test CRC 8DEF13DB
     Copy CRC 8DEF13DB
     Accurately ripped (confidence 4)  [34D78AE3]  (AR v2)
     Copy OK
Track  3
     Filename C:\Rip\03 - Sonata No.9 in E major, op.14,1 - I. Allegro.wav
     Pre-gap length  0:00:07.20
     Peak level 93.1 %
     Extraction speed 3.2 X
     Track quality 99.9 %
     Test CRC B04FC7EB
     Copy CRC B04FC7EB
     Accurately ripped (confidence 4)  [950CA05B]  (AR v2)
     Copy OK
Track  4
     Filename C:\Rip\04 - Sonata No.9 in E major, op.14,1 - II. Allegretto.wav
     Pre-gap length  0:00:02.45
     Peak level 62.6 %
     Extraction speed 3.6 X
     Track quality 100.0 %
     Test CRC DB601EC1
     Copy CRC DB601EC1
     Accurately ripped (confidence 4)  [F1B95FA1]  (AR v2)
     Copy OK
Track  5
     Filename C:\Rip\05 - Sonata No.9 in E major, op.14,1 - III. Rondo (Allegro commodo).wav
     Pre-gap length  0:00:02.00
     Peak level 92.1 %
     Extraction speed 3.1 X
     Track quality 99.9 %
     Test CRC 648664A7
     Copy CRC 648664A7
     Accurately ripped (confidence 4)  [ED9F1D6A]  (AR v2)
     Copy OK
Track  6
     Filename C:\Rip\06 - Sonata No.14 in C-sharp minor, op.27,2 [Moonlight] - I. Adagio sostenuto.wav
     Pre-gap length  0:00:05.00
     Peak level 35.4 %
     Extraction speed 4.3 X
     Track quality 100.0 %
     Test CRC 186A7045
     Copy CRC 186A7045
     Accurately ripped (confidence 4)  [B7AF0CA4]  (AR v2)
     Copy OK
Track  7
     Filename C:\Rip\07 - Sonata No.14 in C-sharp minor, op.27,2 [Moonlight] - II. Allegretto.wav
     Peak level 81.7 %
     Extraction speed 3.8 X
     Track quality 100.0 %
     Test CRC E8ACCF3F
     Copy CRC E8ACCF3F
     Accurately ripped (confidence 4)  [0BFECE34]  (AR v2)
     Copy OK
Track  8
     Filename C:\Rip\08 - Sonata No.14 in C-sharp minor, op.27,2 [Moonlight] - III. Presto agitato.wav
     Pre-gap length  0:00:01.68
     Peak level 96.8 %
     Extraction speed 4.7 X
     Track quality 100.0 %
     Test CRC 55E2F9DC
     Copy CRC 55E2F9DC
     Accurately ripped (confidence 4)  [BBDA4740]  (AR v2)
     Copy OK
Track  9
     Filename C:\Rip\09 - Sonata No. 28 in A major, op.101 - I. Allegretto ma non troppo con intimissimo sentimento.wav
     Pre-gap length  0:00:08.15
     Peak level 85.8 %
     Extraction speed 4.6 X
     Track quality 100.0 %
     Test CRC 0027D9A7
     Copy CRC 0027D9A7
     Accurately ripped (confidence 4)  [6364269E]  (AR v2)
     Copy OK
Track 10
     Filename C:\Rip\10 - Sonata No. 28 in A major, op.101 - II. Vivace alla Marcia.wav
     Pre-gap length  0:00:01.37
     Peak level 95.0 %
     Extraction speed 4.5 X
     Track quality 99.9 %
     Test CRC 14C57EFB
     Copy CRC 14C57EFB
     Accurately ripped (confidence 4)  [CDB913FA]  (AR v2)
     Copy OK
Track 11
     Filename C:\Rip\11 - Sonata No. 28 in A major, op.101 - III. Adagio ma non troppo, con affetto.wav
     Pre-gap length  0:00:01.20
     Peak level 72.8 %
     Extraction speed 4.6 X
     Track quality 100.0 %
     Test CRC 78CAC577
     Copy CRC 78CAC577
     Accurately ripped (confidence 4)  [9C7E633C]  (AR v2)
     Copy OK
Track 12
     Filename C:\Rip\12 - Sonata No. 28 in A major, op.101 - IV. Allegro ma non troppo, e con fermezza.wav
     Peak level 95.6 %
     Extraction speed 5.1 X
     Track quality 99.9 %
     Test CRC 1ED341AF
     Copy CRC 1ED341AF
     Accurately ripped (confidence 4)  [FECE5A5A]  (AR v2)
     Copy OK
All tracks accurately ripped
No errors occurred
End of status report
---- CUETools DB Plugin V2.1.3
[CTDB TOCID: EsG8eBMXgPVvV5Stg0n6cOwb8HU-] found, Submit result: EsG8eBMXgPVvV5Stg0n6cOwb8HU- has been confirmed
[f0121566] (1/1) Accurately ripped
==== Log checksum 09AD6FDED5163EC3091E8EE9EBC9ABE190E488AA6F210C663633FCDE9E3978D5 ====

-

CUE

REM GENRE Classical
REM DATE 1978
REM DISCID 9A0E490C
REM COMMENT "ExactAudioCopy v1.0b3"
PERFORMER "Beethoven"
TITLE "Complete Piano Sonatas CD5"
FILE "01 PS 27 e-moll Op 90 I. Con vivacita e sempre con sentimento ed espressione.flac" WAVE
  TRACK 01 AUDIO
    TITLE "Piano Sonata № 27 e-moll Op 90  I. Con vivacita e sempre con sentimento ed espressione"
    PERFORMER "Beethoven"
    INDEX 01 00:00:00
FILE "02 PS 27 e-moll Op 90 II. Non troppo vivace e cantabile assai.flac" WAVE
  TRACK 02 AUDIO
    TITLE "Piano Sonata № 27 e-moll Op 90  II. Non troppo vivace e cantabile assai"
    PERFORMER "Beethoven"
    INDEX 01 00:00:00
FILE "03 PS 9 E-Dur Op 14-1 I. Allegro.flac" WAVE
  TRACK 03 AUDIO
    TITLE "Piano Sonata № 9 E-Dur Op 14/1 – I. Allegro"
    PERFORMER "Beethoven"
    INDEX 01 00:00:00
FILE "04 PS 9 E-Dur Op 14-1 II. Allegretto.flac" WAVE
  TRACK 04 AUDIO
    TITLE "Piano Sonata № 9 E-Dur Op 14/1 – II. Allegretto"
    PERFORMER "Beethoven"
    INDEX 01 00:00:00
FILE "05 PS 9 E-Dur Op 14-1 III. Rondo (Allegro commodo).flac" WAVE
  TRACK 05 AUDIO
    TITLE "Piano Sonata № 9 E-Dur Op 14/1 – III. Rondo (Allegro commodo)"
    PERFORMER "Beethoven"
    INDEX 01 00:00:00
FILE "06 PS 14 cis-moll Op 27-2 'Moonlight' I. Adagio sostenuto.flac" WAVE
  TRACK 06 AUDIO
    TITLE "Piano Sonata № 14 cis-moll Op 27/2 «Moonlight» – I. Adagio sostenuto"
    PERFORMER "Beethoven"
    INDEX 01 00:00:00
FILE "07 PS 14 cis-moll Op 27-2 'Moonlight' II. Allegretto.flac" WAVE
  TRACK 07 AUDIO
    TITLE "Piano Sonata № 14 cis-moll Op 27/2 «Moonlight» – II. Allegretto"
    PERFORMER "Beethoven"
    INDEX 01 00:00:00
FILE "08 PS 14 cis-moll Op 27-2 'Moonlight' III. Presto agitato.flac" WAVE
  TRACK 08 AUDIO
    TITLE "Piano Sonata № 14 cis-moll Op 27/2 «Moonlight» – III. Presto agitato"
    PERFORMER "Beethoven"
    INDEX 01 00:00:00
FILE "09 PS 28 A-Dur Op 101 I. Allegretto ma non troppo con intimissimo sentimento.flac" WAVE
  TRACK 09 AUDIO
    TITLE "Piano Sonata № 28 A-Dur Op 101 – I. Allegretto ma non troppo con intimissimo sentimento"
    PERFORMER "Beethoven"
    INDEX 01 00:00:00
FILE "10 PS 28 A-Dur Op 101 II. Vivace alla Marcia.flac" WAVE
  TRACK 10 AUDIO
    TITLE "Piano Sonata № 28 A-Dur Op 101 – II. Vivace alla Marcia"
    PERFORMER "Beethoven"
    INDEX 01 00:00:00
FILE "11 PS 28 A-Dur Op 101 III. Adagio ma non troppo, con affetto.flac" WAVE
  TRACK 11 AUDIO
    TITLE "Piano Sonata № 28 A-Dur Op 101 – III. Adagio ma non troppo, con affetto"
    PERFORMER "Beethoven"
    INDEX 01 00:00:00
FILE "12 PS 28 A-Dur Op 101 IV. Allegro ma non troppo, e con fermezza.flac" WAVE
  TRACK 12 AUDIO
    TITLE "Piano Sonata № 28 A-Dur Op 101 – IV. Allegro ma non troppo, e con fermezza"
    PERFORMER "Beethoven"
    INDEX 01 00:00:00
-CD6 – 01h08'39"
(01-03) Piano Sonata № 23 f-moll Op 57 «Appassionata» [23'42"]
(04-06) Piano Sonata № 17 d-moll Op 31/2 «The Tempest» [22'03"]
(07-10) Piano Sonata № 15 D-Dur Op 28 «Pastorale» [22'55"]-

EAC log

Exact Audio Copy V1.0 beta 3 from 29. August 2011
EAC extraction logfile from 18. January 2013, 11:29
Annie Fischer / Complete Beethoven Piano Sonatas
Used drive  : HL-DT-STDVDRAM GT33N   Adapter: 0  ID: 1
Read mode               : Secure
Utilize accurate stream : Yes
Defeat audio cache      : Yes
Make use of C2 pointers : No
Read offset correction                      : 103
Overread into Lead-In and Lead-Out          : No
Fill up missing offset samples with silence : Yes
Delete leading and trailing silent blocks   : No
Null samples used in CRC calculations       : Yes
Used interface                              : Native Win32 interface for Win NT & 2000
Gap handling                                : Appended to previous track
Used output format              : User Defined Encoder
Selected bitrate                : 128 kBit/s
Quality                         : High
Add ID3 tag                     : No
Command line compressor         : C:\Program Files (x86)\Exact Audio Copy\Flac\flac.exe
Additional command line options : -8 -V -T "ARTIST=%artist%" -T "TITLE=%title%" -T "ALBUM=%albumtitle%" -T "DATE=%year%" -T "TRACKNUMBER=%tracknr%" -T "TOTALTRACKS=%numtracks%" -T "GENRE=%genre%" -T "ALBUMARTIST=%albumartist%" -T "ALBUM ARTIST=%albumartist%" -T "COMMENT=EAC Secure Mode, Test & Copy, AccurateRip, FLAC -8" %source%
TOC of the extracted CD
     Track |   Start  |  Length  | Start sector | End sector
    ---------------------------------------------------------
        1  |  0:00.00 |  9:08.34 |         0    |    41133
        2  |  9:08.34 |  6:25.62 |     41134    |    70070
        3  | 15:34.21 |  8:07.25 |     70071    |   106620
        4  | 23:41.46 |  8:01.33 |    106621    |   142728
        5  | 31:43.04 |  7:33.15 |    142729    |   176718
        6  | 39:16.19 |  6:28.19 |    176719    |   205837
        7  | 45:44.38 |  8:39.53 |    205838    |   244815
        8  | 54:24.16 |  7:09.20 |    244816    |   277010
        9  | 61:33.36 |  2:17.54 |    277011    |   287339
       10  | 63:51.15 |  4:48.49 |    287340    |   308988
Track  1
     Filename C:\Rip\01 - Sonata in F minor Op. 57 ''Appassionata'' I Allegro assai.wav
     Pre-gap length  0:00:02.00
     Peak level 91.5 %
     Extraction speed 1.4 X
     Track quality 99.9 %
     Test CRC 51844FF2
     Copy CRC 51844FF2
     Accurately ripped (confidence 4)  [820FAE58]  (AR v2)
     Copy OK
Track  2
     Filename C:\Rip\02 - Sonata in F minor Op. 57 ''Appassionata'' II Andante con moto.wav
     Peak level 64.0 %
     Extraction speed 1.7 X
     Track quality 100.0 %
     Test CRC 9B2691AB
     Copy CRC 9B2691AB
     Accurately ripped (confidence 4)  [C0375E69]  (AR v2)
     Copy OK
Track  3
     Filename C:\Rip\03 - Sonata in F minor Op. 57 ''Appassionata'' III Allegro, ma non troppo.wav
     Peak level 94.8 %
     Extraction speed 1.8 X
     Track quality 99.9 %
     Test CRC D133DAA3
     Copy CRC D133DAA3
     Accurately ripped (confidence 4)  [4EEB8204]  (AR v2)
     Copy OK
Track  4
     Filename C:\Rip\04 - Sonata in D minor Op. 31 No 2 I Largo - Allegro.wav
     Peak level 93.4 %
     Extraction speed 2.1 X
     Track quality 100.0 %
     Test CRC 29663684
     Copy CRC 29663684
     Accurately ripped (confidence 4)  [D1234359]  (AR v2)
     Copy OK
Track  5
     Filename C:\Rip\05 - Sonata in D minor Op. 31 No 2 II Adagio.wav
     Peak level 46.6 %
     Extraction speed 2.3 X
     Track quality 100.0 %
     Test CRC DC157E04
     Copy CRC DC157E04
     Accurately ripped (confidence 4)  [39B89763]  (AR v2)
     Copy OK
Track  6
     Filename C:\Rip\06 - Sonata in D minor Op. 31 No 2 III Allegretto.wav
     Peak level 76.7 %
     Extraction speed 2.4 X
     Track quality 100.0 %
     Test CRC 770B679C
     Copy CRC 770B679C
     Accurately ripped (confidence 4)  [CE96E0DB]  (AR v2)
     Copy OK
Track  7
     Filename C:\Rip\07 - Sonata in D major Op. 28 ''Pastorale'' I Allegro.wav
     Peak level 91.7 %
     Extraction speed 2.6 X
     Track quality 100.0 %
     Test CRC FEB0A1B8
     Copy CRC FEB0A1B8
     Accurately ripped (confidence 4)  [B760A35B]  (AR v2)
     Copy OK
Track  8
     Filename C:\Rip\08 - Sonata in D major Op. 28 ''Pastorale'' II Andante.wav
     Peak level 81.6 %
     Extraction speed 2.5 X
     Track quality 99.9 %
     Test CRC 8A1131C5
     Copy CRC 8A1131C5
     Accurately ripped (confidence 4)  [01ABF9F7]  (AR v2)
     Copy OK
Track  9
     Filename C:\Rip\09 - Sonata in D major Op. 28 ''Pastorale'' III Scherzo.wav
     Peak level 76.2 %
     Extraction speed 2.3 X
     Track quality 100.0 %
     Test CRC CBFC4C13
     Copy CRC CBFC4C13
     Accurately ripped (confidence 4)  [D8C7C191]  (AR v2)
     Copy OK
Track 10
     Filename C:\Rip\10 - Sonata in D major Op. 28 ''Pastorale'' IV Rondo.wav
     Peak level 95.3 %
     Extraction speed 2.8 X
     Track quality 100.0 %
     Test CRC 75C09327
     Copy CRC 75C09327
     Accurately ripped (confidence 4)  [AF8F677A]  (AR v2)
     Copy OK
All tracks accurately ripped
No errors occurred
End of status report
---- CUETools DB Plugin V2.1.3
[CTDB TOCID: EZi.SRZZfoBQu7iycaWUL6oYZ_k-] found, Submit result: EZi.SRZZfoBQu7iycaWUL6oYZ_k- has been confirmed
[451ac051] (1/1) Accurately ripped
==== Log checksum F70CDDD1BDC45350F1F2862EED2066D469BD6D76E2C7E48C71BE9C394BA09A15 ====

-

CUE

REM GENRE Classical
REM DATE 1978
REM DISCID 9510170A
REM COMMENT "ExactAudioCopy v1.0b3"
PERFORMER "Beethoven"
TITLE "Complete Piano Sonatas CD6"
FILE "01 PS 23 f-moll Op 57 'Appassionata' I. Allegro assai.flac" WAVE
  TRACK 01 AUDIO
    TITLE "Piano Sonata № 23 а-moll Op 57 «Appassionata» – I. Allegro assai"
    PERFORMER "Beethoven"
    INDEX 01 00:00:00
FILE "02 PS 23 f-moll Op 57 'Appassionata' II. Andante con moto.flac" WAVE
  TRACK 02 AUDIO
    TITLE "Piano Sonata № 23 а-moll Op 57 «Appassionata» – II Andante con moto"
    PERFORMER "Beethoven"
    INDEX 01 00:00:00
FILE "03 PS 23 f-moll Op 57 'Appassionata' III. Allegro, ma non troppo.flac" WAVE
  TRACK 03 AUDIO
    TITLE "Piano Sonata № 23 а-moll Op 57 «Appassionata» – III Allegro, ma non troppo"
    PERFORMER "Beethoven"
    INDEX 01 00:00:00
FILE "04 PS 17 d-moll Op 31-2 'The Tempest' I. Largo - Allegro.flac" WAVE
  TRACK 04 AUDIO
    TITLE "Piano Sonata № 17 d-moll Op 31/2 «The Tempest» – I. Largo - Allegro"
    PERFORMER "Beethoven"
    INDEX 01 00:00:00
FILE "05 PS 17 d-moll Op 31-2 'The Tempest' II. Adagio.flac" WAVE
  TRACK 05 AUDIO
    TITLE "Piano Sonata № 17 d-moll Op 31/2 «The Tempest» – II. Adagio"
    PERFORMER "Beethoven"
    INDEX 01 00:00:00
FILE "06 PS 17 d-moll Op 31-2 'The Tempest' III. Allegretto.flac" WAVE
  TRACK 06 AUDIO
    TITLE "Piano Sonata № 17 d-moll Op 31/2 «The Tempest» – III. Allegretto"
    PERFORMER "Beethoven"
    INDEX 01 00:00:00
FILE "07 PS 15 D-Dur Op 28 'Pastorale' I. Allegro.flac" WAVE
  TRACK 07 AUDIO
    TITLE "Piano Sonata № 15 D-Dur Op 28 «Pastorale» – I. Allegro"
    PERFORMER "Beethoven"
    INDEX 01 00:00:00
FILE "08 PS 15 D-Dur Op 28 'Pastorale' II. Andante.flac" WAVE
  TRACK 08 AUDIO
    TITLE "Piano Sonata № 15 D-Dur Op 28 «Pastorale» – II. Andante"
    PERFORMER "Beethoven"
    INDEX 01 00:00:00
FILE "09 PS 15 D-Dur Op 28 'Pastorale' III. Scherzo.flac" WAVE
  TRACK 09 AUDIO
    TITLE "Piano Sonata № 15 D-Dur Op 28 «Pastorale» – III. Scherzo"
    PERFORMER "Beethoven"
    INDEX 01 00:00:00
FILE "10 PS 15 D-Dur Op 28 'Pastorale' IV. Rondo.flac" WAVE
  TRACK 10 AUDIO
    TITLE "Piano Sonata № 15 D-Dur Op 28 «Pastorale» – IV. Rondo"
    PERFORMER "Beethoven"
    INDEX 01 00:00:00
-CD7 – 01h09'01"
(01-03) Piano Sonata № 16 G-Dur Op 31/1 [22'09"]
(04-06) Piano Sonata № 30 E-Dur Op 109 [18'05"]
(07-10) Piano Sonata № 2 A-Dur Op 2/2 [21'15"]
(01-12) Piano Sonata № 24 Fis-Dur Op 78 [07'32"]-

EAC log

Exact Audio Copy V1.0 beta 3 from 29. August 2011
EAC extraction logfile from 19. January 2013, 11:43
Annie Fischer / Complete Beethoven Piano Sonatas
Used drive  : HL-DT-STDVDRAM GT33N   Adapter: 0  ID: 1
Read mode               : Secure
Utilize accurate stream : Yes
Defeat audio cache      : Yes
Make use of C2 pointers : No
Read offset correction                      : 103
Overread into Lead-In and Lead-Out          : No
Fill up missing offset samples with silence : Yes
Delete leading and trailing silent blocks   : No
Null samples used in CRC calculations       : Yes
Used interface                              : Native Win32 interface for Win NT & 2000
Gap handling                                : Appended to previous track
Used output format              : User Defined Encoder
Selected bitrate                : 128 kBit/s
Quality                         : High
Add ID3 tag                     : No
Command line compressor         : C:\Program Files (x86)\Exact Audio Copy\Flac\flac.exe
Additional command line options : -8 -V -T "ARTIST=%artist%" -T "TITLE=%title%" -T "ALBUM=%albumtitle%" -T "DATE=%year%" -T "TRACKNUMBER=%tracknr%" -T "TOTALTRACKS=%numtracks%" -T "GENRE=%genre%" -T "ALBUMARTIST=%albumartist%" -T "ALBUM ARTIST=%albumartist%" -T "COMMENT=EAC Secure Mode, Test & Copy, AccurateRip, FLAC -8" %source%
TOC of the extracted CD
     Track |   Start  |  Length  | Start sector | End sector
    ---------------------------------------------------------
        1  |  0:00.00 |  6:23.70 |         0    |    28794
        2  |  6:23.70 |  9:56.37 |     28795    |    73531
        3  | 16:20.32 |  5:48.48 |     73532    |    99679
        4  | 22:09.05 |  3:40.62 |     99680    |   116241
        5  | 25:49.67 |  2:23.08 |    116242    |   126974
        6  | 28:13.00 | 12:00.70 |    126975    |   181044
        7  | 40:13.70 |  6:46.10 |    181045    |   211504
        8  | 47:00.05 |  5:31.45 |    211505    |   236374
        9  | 52:31.50 |  3:10.24 |    236375    |   250648
       10  | 55:41.74 |  5:46.63 |    250649    |   276661
       11  | 61:28.62 |  4:34.68 |    276662    |   297279
       12  | 66:03.55 |  2:57.34 |    297280    |   310588
Track  1
     Filename C:\Rip\01 - Sonata No.16 in G major, op.31,1 - I. Allegro vivace.wav
     Pre-gap length  0:00:02.00
     Peak level 89.5 %
     Extraction speed 2.8 X
     Track quality 100.0 %
     Test CRC 9A2617F4
     Copy CRC 9A2617F4
     Accurately ripped (confidence 4)  [97B6DBDF]  (AR v2)
     Copy OK
Track  2
     Filename C:\Rip\02 - Sonata No.16 in G major, op.31,1 - II. Adagio grazioso.wav
     Peak level 81.1 %
     Extraction speed 3.4 X
     Track quality 100.0 %
     Test CRC 7BEA3F82
     Copy CRC 7BEA3F82
     Accurately ripped (confidence 4)  [BF15BDF1]  (AR v2)
     Copy OK
Track  3
     Filename C:\Rip\03 - Sonata No.16 in G major, op.31,1 - III. Rondo (Allegretto).wav
     Peak level 95.4 %
     Extraction speed 3.6 X
     Track quality 100.0 %
     Test CRC 280184E1
     Copy CRC 280184E1
     Accurately ripped (confidence 4)  [0ED6FC30]  (AR v2)
     Copy OK
Track  4
     Filename C:\Rip\04 - Sonata No.30 in E-major, op.109 - I. Vivace ma non troppo.wav
     Peak level 70.8 %
     Extraction speed 3.6 X
     Track quality 100.0 %
     Test CRC F47B41ED
     Copy CRC F47B41ED
     Accurately ripped (confidence 4)  [737139A6]  (AR v2)
     Copy OK
Track  5
     Filename C:\Rip\05 - Sonata No.30 in E-major, op.109 - II. Prestissimo.wav
     Peak level 94.9 %
     Extraction speed 2.9 X
     Track quality 99.9 %
     Test CRC CBE97882
     Copy CRC CBE97882
     Accurately ripped (confidence 4)  [45D17A9D]  (AR v2)
     Copy OK
Track  6
     Filename C:\Rip\06 - Sonata No.30 in E-major, op.109 - III. Gesangvoll, mit innigster Empfindung.wav
     Peak level 82.3 %
     Extraction speed 4.5 X
     Track quality 100.0 %
     Test CRC E3116B43
     Copy CRC E3116B43
     Accurately ripped (confidence 4)  [6D79353A]  (AR v2)
     Copy OK
Track  7
     Filename C:\Rip\07 - Sonata No.2 in A-major, op.2,2 - I. Allegro vivace.wav
     Peak level 84.9 %
     Extraction speed 4.7 X
     Track quality 100.0 %
     Test CRC 18DEA6D8
     Copy CRC 18DEA6D8
     Accurately ripped (confidence 4)  [4C22FCD7]  (AR v2)
     Copy OK
Track  8
     Filename C:\Rip\08 - Sonata No.2 in A-major, op.2,2 - II. Largo appassionato.wav
     Peak level 73.6 %
     Extraction speed 4.8 X
     Track quality 100.0 %
     Test CRC CA885B61
     Copy CRC CA885B61
     Accurately ripped (confidence 4)  [5F225C1E]  (AR v2)
     Copy OK
Track  9
     Filename C:\Rip\09 - Sonata No.2 in A-major, op.2,2 - III. Scherzo (Allegretto).wav
     Peak level 89.0 %
     Extraction speed 4.6 X
     Track quality 100.0 %
     Test CRC 5B2B2452
     Copy CRC 5B2B2452
     Accurately ripped (confidence 4)  [F1E6AC62]  (AR v2)
     Copy OK
Track 10
     Filename C:\Rip\10 - Sonata No.2 in A-major, op.2,2 - IV. Rondo (Grazioso).wav
     Peak level 75.7 %
     Extraction speed 5.0 X
     Track quality 100.0 %
     Test CRC F2775A85
     Copy CRC F2775A85
     Accurately ripped (confidence 4)  [B1B042F5]  (AR v2)
     Copy OK
Track 11
     Filename C:\Rip\11 - Sonata No.24 in F-sharp major, op.78 - I. Adagio cantabile.wav
     Peak level 94.5 %
     Extraction speed 4.6 X
     Track quality 99.9 %
     Test CRC 7BAD13CB
     Copy CRC 7BAD13CB
     Accurately ripped (confidence 4)  [D8F0FDE5]  (AR v2)
     Copy OK
Track 12
     Filename C:\Rip\12 - Sonata No.24 in F-sharp major, op.78 - II. Allegro vivace.wav
     Peak level 91.4 %
     Extraction speed 4.9 X
     Track quality 100.0 %
     Test CRC 913EF83B
     Copy CRC 913EF83B
     Accurately ripped (confidence 4)  [24BC0B91]  (AR v2)
     Copy OK
All tracks accurately ripped
No errors occurred
End of status report
---- CUETools DB Plugin V2.1.3
[CTDB TOCID: tJmsh6e0JmoHnrQBT.yWzbqLpjs-] found, Submit result: tJmsh6e0JmoHnrQBT.yWzbqLpjs- has been confirmed
[5770adc3] (10/10) Accurately ripped
==== Log checksum 983413476AFB345BFB6FE90ABACA690FCF0D6B52E6D66A798B6151BF2FCDA519 ====

-

CUE

REM GENRE Classical
REM DATE 1978
REM DISCID AA102D0C
REM COMMENT "ExactAudioCopy v1.0b3"
PERFORMER "Beethoven"
TITLE "Complete Piano Sonatas CD7"
FILE "01 PS 16 G-Dur Op 31-1 I. Allegro vivace.flac" WAVE
  TRACK 01 AUDIO
    TITLE "Piano Sonata № 16 G-Dur Op 31/1 – I. Allegro vivace"
    PERFORMER "Beethoven"
    INDEX 01 00:00:00
FILE "02 PS 16 G-Dur Op 31-1 II. Adagio grazioso.flac" WAVE
  TRACK 02 AUDIO
    TITLE "Piano Sonata № 16 G-Dur Op 31/1 – II. Adagio grazioso"
    PERFORMER "Beethoven"
    INDEX 01 00:00:00
FILE "03 PS 16 G-Dur Op 31-1 III. Rondo (Allegretto).flac" WAVE
  TRACK 03 AUDIO
    TITLE "Piano Sonata № 16 G-Dur Op 31/1 – III. Rondo (Allegretto)"
    PERFORMER "Beethoven"
    INDEX 01 00:00:00
FILE "04 PS 30 E-Dur Op 109 I. Vivace ma non troppo.flac" WAVE
  TRACK 04 AUDIO
    TITLE "Piano Sonata № 30 E-Dur Op 109 – I. Vivace ma non troppo"
    PERFORMER "Beethoven"
    INDEX 01 00:00:00
FILE "05 PS 30 E-Dur Op 109 II. Prestissimo.flac" WAVE
  TRACK 05 AUDIO
    TITLE "Piano Sonata № 30 E-Dur Op 109 – II. Prestissimo"
    PERFORMER "Beethoven"
    INDEX 01 00:00:00
FILE "06 PS 30 E-Dur Op 109 III. Gesangvoll, mit innigster Empfindung.flac" WAVE
  TRACK 06 AUDIO
    TITLE "Piano Sonata № 30 E-Dur Op 109 – III. Gesangvoll, mit innigster Empfindung"
    PERFORMER "Beethoven"
    INDEX 01 00:00:00
FILE "07 PS 2 A-Dur Op 2-2 I. Allegro vivace.flac" WAVE
  TRACK 07 AUDIO
    TITLE "Piano Sonata № 2 A-Dur Op 2/2 – I. Allegro vivace"
    PERFORMER "Beethoven"
    INDEX 01 00:00:00
FILE "08 PS 2 A-Dur Op 2-2 II. Largo appassionato.flac" WAVE
  TRACK 08 AUDIO
    TITLE "Piano Sonata № 2 A-Dur Op 2/2 – II. Largo appassionato"
    PERFORMER "Beethoven"
    INDEX 01 00:00:00
FILE "09 PS 2 A-Dur Op 2-2 III. Scherzo (Allegretto).flac" WAVE
  TRACK 09 AUDIO
    TITLE "Piano Sonata № 2 A-Dur Op 2/2 – III. Scherzo (Allegretto)"
    PERFORMER "Beethoven"
    INDEX 01 00:00:00
FILE "10 PS 2 A-Dur Op 2-2 IV. Rondo (Grazioso).flac" WAVE
  TRACK 10 AUDIO
    TITLE "Piano Sonata № 2 A-Dur Op 2/2 – IV. Rondo (Grazioso)"
    PERFORMER "Beethoven"
    INDEX 01 00:00:00
FILE "11 PS 24 Fis-Dur Op 78 I. Adagio cantabile.flac" WAVE
  TRACK 11 AUDIO
    TITLE "Piano Sonata № 24 Fis-Dur Op 78 – I. Adagio cantabile"
    PERFORMER "Beethoven"
    INDEX 01 00:00:00
FILE "12 PS 24 Fis-Dur Op 78 II. Allegro vivace.flac" WAVE
  TRACK 12 AUDIO
    TITLE "Piano Sonata № 24 Fis-Dur Op 78 – II. Allegro vivace"
    PERFORMER "Beethoven"
    INDEX 01 00:00:00
-CD8 – 01h09'18"
(01-03) Piano Sonata № 5 c-moll Op 10/1 [17'53"]
(04-06) Piano Sonata № 21 C-Dur Op 53 «Waldstein» [23'53"]
(07-10) Piano Sonata № 4 Es-Dur Op 7 [27'32"]-

EAC log

Exact Audio Copy V1.0 beta 3 from 29. August 2011
EAC extraction logfile from 19. January 2013, 13:18
Annie Fischer / Complete Beethoven Piano Sonatas
Used drive  : HL-DT-STDVDRAM GT33N   Adapter: 0  ID: 1
Read mode               : Secure
Utilize accurate stream : Yes
Defeat audio cache      : Yes
Make use of C2 pointers : No
Read offset correction                      : 103
Overread into Lead-In and Lead-Out          : No
Fill up missing offset samples with silence : Yes
Delete leading and trailing silent blocks   : No
Null samples used in CRC calculations       : Yes
Used interface                              : Native Win32 interface for Win NT & 2000
Gap handling                                : Appended to previous track
Used output format              : User Defined Encoder
Selected bitrate                : 128 kBit/s
Quality                         : High
Add ID3 tag                     : No
Command line compressor         : C:\Program Files (x86)\Exact Audio Copy\Flac\flac.exe
Additional command line options : -8 -V -T "ARTIST=%artist%" -T "TITLE=%title%" -T "ALBUM=%albumtitle%" -T "DATE=%year%" -T "TRACKNUMBER=%tracknr%" -T "TOTALTRACKS=%numtracks%" -T "GENRE=%genre%" -T "ALBUMARTIST=%albumartist%" -T "ALBUM ARTIST=%albumartist%" -T "COMMENT=EAC Secure Mode, Test & Copy, AccurateRip, FLAC -8" %source%
TOC of the extracted CD
     Track |   Start  |  Length  | Start sector | End sector
    ---------------------------------------------------------
        1  |  0:00.00 |  5:37.62 |         0    |    25336
        2  |  5:37.62 |  7:42.43 |     25337    |    60029
        3  | 13:20.30 |  4:32.55 |     60030    |    80484
        4  | 17:53.10 | 10:56.17 |     80485    |   129701
        5  | 28:49.27 |  3:56.33 |    129702    |   147434
        6  | 32:45.60 |  9:00.22 |    147435    |   187956
        7  | 41:46.07 |  8:00.18 |    187957    |   223974
        8  | 49:46.25 |  8:22.17 |    223975    |   261641
        9  | 58:08.42 |  4:55.63 |    261642    |   283829
       10  | 63:04.30 |  6:13.60 |    283830    |   311864
Track  1
     Filename C:\Rip\01 - Beethoven Sonata in C minor Op.10 No.1 - I. Molto allegro.wav
     Pre-gap length  0:00:02.00
     Peak level 97.1 %
     Extraction speed 2.7 X
     Track quality 100.0 %
     Test CRC CECEB48F
     Copy CRC CECEB48F
     Accurately ripped (confidence 2)  [0439A8AA]  (AR v2)
     Copy OK
Track  2
     Filename C:\Rip\02 - Beethoven Sonata in C minor Op.10 No.1 - II. Adagio molto.wav
     Pre-gap length  0:00:01.70
     Peak level 71.6 %
     Extraction speed 3.2 X
     Track quality 100.0 %
     Test CRC BDE02A24
     Copy CRC BDE02A24
     Accurately ripped (confidence 2)  [2741CBCB]  (AR v2)
     Copy OK
Track  3
     Filename C:\Rip\03 - Beethoven Sonata in C minor Op.10 No.1 - III. Finale. Prestissimo.wav
     Pre-gap length  0:00:01.20
     Peak level 94.2 %
     Extraction speed 3.3 X
     Track quality 100.0 %
     Test CRC 1847FE8B
     Copy CRC 1847FE8B
     Accurately ripped (confidence 2)  [B4D879EE]  (AR v2)
     Copy OK
Track  4
     Filename C:\Rip\04 - Beethoven Sonata in C major 'Waldstein' Op.53 - I. Allegro con brio.wav
     Pre-gap length  0:00:07.20
     Peak level 86.9 %
     Extraction speed 4.0 X
     Track quality 100.0 %
     Test CRC 3D5C347E
     Copy CRC 3D5C347E
     Accurately ripped (confidence 2)  [E4F38A70]  (AR v2)
     Copy OK
Track  5
     Filename C:\Rip\05 - Beethoven Sonata in C major 'Waldstein' Op.53 - II. Introduzione. Adagio molto-Attacca subito.wav
     Pre-gap length  0:00:03.35
     Peak level 67.8 %
     Extraction speed 3.9 X
     Track quality 100.0 %
     Test CRC 80E320C2
     Copy CRC 80E320C2
     Accurately ripped (confidence 2)  [DC4432DF]  (AR v2)
     Copy OK
Track  6
     Filename C:\Rip\06 - Beethoven Sonata in C major 'Waldstein' Op.53 - III. Rondo. Allegretto moderato-Prestissimo.wav
     Peak level 96.0 %
     Extraction speed 4.5 X
     Track quality 100.0 %
     Test CRC 663B9A7B
     Copy CRC 663B9A7B
     Accurately ripped (confidence 2)  [A6A336DF]  (AR v2)
     Copy OK
Track  7
     Filename C:\Rip\07 - Beethoven Sonata in E flat major Op.7 - I. Molto allegro.wav
     Pre-gap length  0:00:08.20
     Peak level 97.8 %
     Extraction speed 4.8 X
     Track quality 100.0 %
     Test CRC A9AD41D4
     Copy CRC A9AD41D4
     Accurately ripped (confidence 2)  [93E8C7B7]  (AR v2)
     Copy OK
Track  8
     Filename C:\Rip\08 - Beethoven Sonata in E flat major Op.7 - II. Largo con gran espressione.wav
     Pre-gap length  0:00:02.58
     Peak level 94.7 %
     Extraction speed 5.1 X
     Track quality 100.0 %
     Test CRC 896DF5AA
     Copy CRC 896DF5AA
     Accurately ripped (confidence 2)  [FF034FA0]  (AR v2)
     Copy OK
Track  9
     Filename C:\Rip\09 - Beethoven Sonata in E flat major Op.7 - III. Allegro.wav
     Pre-gap length  0:00:01.22
     Peak level 87.9 %
     Extraction speed 5.0 X
     Track quality 100.0 %
     Test CRC 2034C5F7
     Copy CRC 2034C5F7
     Accurately ripped (confidence 2)  [A5467DC9]  (AR v2)
     Copy OK
Track 10
     Filename C:\Rip\10 - Beethoven Sonata in E flat major Op.7 - IV. Rondo. Poco allegretto.wav
     Pre-gap length  0:00:01.43
     Peak level 96.5 %
     Extraction speed 4.9 X
     Track quality 99.9 %
     Test CRC C711D5EF
     Copy CRC C711D5EF
     Accurately ripped (confidence 2)  [41451078]  (AR v2)
     Copy OK
All tracks accurately ripped
No errors occurred
End of status report
---- CUETools DB Plugin V2.1.3
[CTDB TOCID: xE_xBRGDuXvkIEIqsEUBOUTLTqY-] found, Submit result: xE_xBRGDuXvkIEIqsEUBOUTLTqY- has been confirmed
[d8baeacd] (1/1) Accurately ripped
==== Log checksum 5BEF9DEAC28BFE5859641D91A89DD14299A09B51895810DAB409D74B19258964 ====

-

CUE

REM GENRE Classical
REM DATE 1978
REM DISCID 9D103E0A
REM COMMENT "ExactAudioCopy v1.0b3"
PERFORMER "Beethoven"
TITLE "Complete Piano Sonatas CD8"
FILE "01 PS 5 c-moll Op 10-1 I. Molto allegro.flac" WAVE
  TRACK 01 AUDIO
    TITLE "Piano Sonata № 5 c-moll Op 10/1 – I. Molto allegro"
    PERFORMER "Beethoven"
    INDEX 01 00:00:00
FILE "02 PS 5 c-moll Op 10-1 II. Adagio molto.flac" WAVE
  TRACK 02 AUDIO
    TITLE "Piano Sonata № 5 c-moll Op 10/1 – II. Adagio molto"
    PERFORMER "Beethoven"
    INDEX 01 00:00:00
FILE "03 PS 5 c-moll Op 10-1 III. Finale. Prestissimo.flac" WAVE
  TRACK 03 AUDIO
    TITLE "Piano Sonata № 5 c-moll Op 10/1 – III. Finale. Prestissimo"
    PERFORMER "Beethoven"
    INDEX 01 00:00:00
FILE "04 PS 21 C-Dur Op 53 'Waldstein' I. Allegro con brio.flac" WAVE
  TRACK 04 AUDIO
    TITLE "Piano Sonata № 21 C-Dur Op 53 «Waldstein» – I. Allegro con brio"
    PERFORMER "Beethoven"
    INDEX 01 00:00:00
FILE "05 PS 21 C-Dur Op 53 'Waldstein' II. Introduzione. Adagio molto - Attacca subito.flac" WAVE
  TRACK 05 AUDIO
    TITLE "Piano Sonata № 21 C-Dur Op 53 «Waldstein» – II. Introduzione. Adagio molto - Attacca subito"
    PERFORMER "Beethoven"
    INDEX 01 00:00:00
FILE "06 PS 21 C-Dur Op 53 'Waldstein' III. Rondo. Allegretto moderato - Prestissimo.flac" WAVE
  TRACK 06 AUDIO
    TITLE "Piano Sonata № 21 C-Dur Op 53 «Waldstein» – III. Rondo. Allegretto moderato - Prestissimo"
    PERFORMER "Beethoven"
    INDEX 01 00:00:00
FILE "07 PS 4 Es-Dur Op 7 I. Molto allegro.flac" WAVE
  TRACK 07 AUDIO
    TITLE "Piano Sonata № 4 Es-Dur Op 7 – I. Molto allegro"
    PERFORMER "Beethoven"
    INDEX 01 00:00:00
FILE "08 PS 4 Es-Dur Op 7 II. Largo con gran espressione.flac" WAVE
  TRACK 08 AUDIO
    TITLE "Piano Sonata № 4 Es-Dur Op 7 – II. Largo con gran espressione"
    PERFORMER "Beethoven"
    INDEX 01 00:00:00
FILE "09 PS 4 Es-Dur Op 7 III. Allegro.flac" WAVE
  TRACK 09 AUDIO
    TITLE "Piano Sonata № 4 Es-Dur Op 7 – III. Allegro"
    PERFORMER "Beethoven"
    INDEX 01 00:00:00
FILE "10 PS 4 Es-Dur Op 7 IV. Rondo. Poco allegretto.flac" WAVE
  TRACK 10 AUDIO
    TITLE "Piano Sonata № 4 Es-Dur Op 7 – IV. Rondo. Poco allegretto"
    PERFORMER "Beethoven"
    INDEX 01 00:00:00
-CD9 – 01h08'20"
(01-03) Piano Sonata № 25 G-Dur Op 79 [09'30"]
(04-05) Piano Sonata № 19 g-moll Op 49/1 [08'02"]
(06-08) Piano Sonata № 26 Es-Dur Op 81a «Les Adieux» [16'11"]
(09-12) Piano Sonata № 11 B-Dur Op 22 [24'31"]
(13-14) Piano Sonata № 22 F-Dur Op 54 [10'06"]-

EAC log

Exact Audio Copy V1.0 beta 3 from 29. August 2011
EAC extraction logfile from 19. January 2013, 14:24
Annie Fischer / Complete Beethoven Piano Sonatas
Used drive  : HL-DT-STDVDRAM GT33N   Adapter: 0  ID: 1
Read mode               : Secure
Utilize accurate stream : Yes
Defeat audio cache      : Yes
Make use of C2 pointers : No
Read offset correction                      : 103
Overread into Lead-In and Lead-Out          : No
Fill up missing offset samples with silence : Yes
Delete leading and trailing silent blocks   : No
Null samples used in CRC calculations       : Yes
Used interface                              : Native Win32 interface for Win NT & 2000
Gap handling                                : Appended to previous track
Used output format              : User Defined Encoder
Selected bitrate                : 128 kBit/s
Quality                         : High
Add ID3 tag                     : No
Command line compressor         : C:\Program Files (x86)\Exact Audio Copy\Flac\flac.exe
Additional command line options : -8 -V -T "ARTIST=%artist%" -T "TITLE=%title%" -T "ALBUM=%albumtitle%" -T "DATE=%year%" -T "TRACKNUMBER=%tracknr%" -T "TOTALTRACKS=%numtracks%" -T "GENRE=%genre%" -T "ALBUMARTIST=%albumartist%" -T "ALBUM ARTIST=%albumartist%" -T "COMMENT=EAC Secure Mode, Test & Copy, AccurateRip, FLAC -8" %source%
TOC of the extracted CD
     Track |   Start  |  Length  | Start sector | End sector
    ---------------------------------------------------------
        1  |  0:00.00 |  4:43.05 |         0    |    21229
        2  |  4:43.05 |  2:45.02 |     21230    |    33606
        3  |  7:28.07 |  2:01.58 |     33607    |    42739
        4  |  9:29.65 |  4:08.30 |     42740    |    61369
        5  | 13:38.20 |  3:54.07 |     61370    |    78926
        6  | 17:32.27 |  6:37.55 |     78927    |   108756
        7  | 24:10.07 |  3:42.48 |    108757    |   125454
        8  | 27:52.55 |  5:50.45 |    125455    |   151749
        9  | 33:43.25 |  7:31.37 |    151750    |   185611
       10  | 41:14.62 |  8:15.05 |    185612    |   222741
       11  | 49:29.67 |  3:09.45 |    222742    |   236961
       12  | 52:39.37 |  5:34.50 |    236962    |   262061
       13  | 58:14.12 |  4:58.58 |    262062    |   284469
       14  | 63:12.70 |  5:07.05 |    284470    |   307499
Track  1
     Filename C:\Rip\01 - Beethoven Sonata in G major Op.79 - I. Presto alla tedesca.wav
     Pre-gap length  0:00:02.00
     Peak level 83.2 %
     Extraction speed 2.6 X
     Track quality 100.0 %
     Test CRC D6FF75D5
     Copy CRC D6FF75D5
     Accurately ripped (confidence 4)  [4002D9FE]  (AR v2)
     Copy OK
Track  2
     Filename C:\Rip\02 - Beethoven Sonata in G major Op.79 - II. Andante.wav
     Pre-gap length  0:00:03.03
     Peak level 70.1 %
     Extraction speed 2.2 X
     Track quality 99.9 %
     Test CRC 628AAD8F
     Copy CRC 628AAD8F
     Accurately ripped (confidence 4)  [1BE65653]  (AR v2)
     Copy OK
Track  3
     Filename C:\Rip\03 - Beethoven Sonata in G major Op.79 - III. Vivace.wav
     Pre-gap length  0:00:00.67
     Peak level 95.2 %
     Extraction speed 2.6 X
     Track quality 100.0 %
     Test CRC 8595C7C3
     Copy CRC 8595C7C3
     Accurately ripped (confidence 4)  [D0D510D2]  (AR v2)
     Copy OK
Track  4
     Filename C:\Rip\04 - Beethoven , Sonata in G minor, Op. 49, No.1, I. Andante.wav
     Pre-gap length  0:00:03.65
     Peak level 75.1 %
     Extraction speed 3.1 X
     Track quality 100.0 %
     Test CRC CA76C6BB
     Copy CRC CA76C6BB
     Accurately ripped (confidence 4)  [D649DCF3]  (AR v2)
     Copy OK
Track  5
     Filename C:\Rip\05 - Beethoven , Sonata in G minor, Op. 49, No.1, II. Rondo- Allegro.wav
     Pre-gap length  0:00:01.18
     Peak level 90.6 %
     Extraction speed 3.3 X
     Track quality 100.0 %
     Test CRC E58F972A
     Copy CRC E58F972A
     Accurately ripped (confidence 4)  [694219C2]  (AR v2)
     Copy OK
Track  6
     Filename C:\Rip\06 - Beethoven Sonata in E flat major Op.81a - I. Das lebewohl - Adagio. Allegro.wav
     Pre-gap length  0:00:04.35
     Peak level 89.4 %
     Extraction speed 3.5 X
     Track quality 99.9 %
     Test CRC 1C913F4F
     Copy CRC 1C913F4F
     Accurately ripped (confidence 4)  [EFD986F5]  (AR v2)
     Copy OK
Track  7
     Filename C:\Rip\07 - Beethoven Sonata in E flat major Op.81a - II. Abwesenheit - Andante espressivo.wav
     Pre-gap length  0:00:02.45
     Peak level 76.7 %
     Extraction speed 3.7 X
     Track quality 100.0 %
     Test CRC 5E7141CC
     Copy CRC 5E7141CC
     Accurately ripped (confidence 4)  [7DB8722A]  (AR v2)
     Copy OK
Track  8
     Filename C:\Rip\08 - Beethoven Sonata in E flat major Op.81a - III. Das wiedersehn - Vivacissimamente (Im lebhaftsten zeitmasse).wav
     Peak level 89.6 %
     Extraction speed 3.8 X
     Track quality 99.9 %
     Test CRC 86797C54
     Copy CRC 86797C54
     Accurately ripped (confidence 4)  [FA5B0C9C]  (AR v2)
     Copy OK
Track  9
     Filename C:\Rip\09 - Beethoven Sonata in B flat major Op.22 - I. Allegro con brio.wav
     Pre-gap length  0:00:04.05
     Peak level 97.2 %
     Extraction speed 4.2 X
     Track quality 99.9 %
     Test CRC B1DBBEFA
     Copy CRC B1DBBEFA
     Accurately ripped (confidence 4)  [903E281C]  (AR v2)
     Copy OK
Track 10
     Filename C:\Rip\10 - Beethoven Sonata in B flat major Op.22 - II. Adagio con molto espressione.wav
     Pre-gap length  0:00:02.70
     Peak level 61.2 %
     Extraction speed 4.8 X
     Track quality 100.0 %
     Test CRC 6603E8E2
     Copy CRC 6603E8E2
     Accurately ripped (confidence 4)  [616278DE]  (AR v2)
     Copy OK
Track 11
     Filename C:\Rip\11 - Beethoven Sonata in B flat major Op.22 - III. Minuetto.wav
     Pre-gap length  0:00:01.47
     Peak level 87.4 %
     Extraction speed 4.5 X
     Track quality 100.0 %
     Test CRC 2514EFB8
     Copy CRC 2514EFB8
     Accurately ripped (confidence 4)  [01AC4525]  (AR v2)
     Copy OK
Track 12
     Filename C:\Rip\12 - Beethoven Sonata in B flat major Op.22 - IV. Rondo. Allegretto.wav
     Pre-gap length  0:00:00.55
     Peak level 96.4 %
     Extraction speed 4.5 X
     Track quality 99.9 %
     Test CRC 4F145BFA
     Copy CRC 4F145BFA
     Accurately ripped (confidence 4)  [B34BF8B2]  (AR v2)
     Copy OK
Track 13
     Filename C:\Rip\13 - Beethoven Sonata in F major Op.54 - I. In tempo d'un minuetto.wav
     Pre-gap length  0:00:04.00
     Peak level 91.7 %
     Extraction speed 4.6 X
     Track quality 99.9 %
     Test CRC E72793E8
     Copy CRC E72793E8
     Accurately ripped (confidence 4)  [AC0DC09A]  (AR v2)
     Copy OK
Track 14
     Filename C:\Rip\14 - Beethoven Sonata in F major Op.54 - I..wav
     Pre-gap length  0:00:00.28
     Peak level 96.3 %
     Extraction speed 4.7 X
     Track quality 99.9 %
     Test CRC 0B6A552E
     Copy CRC 0B6A552E
     Accurately ripped (confidence 4)  [16063D3D]  (AR v2)
     Copy OK
All tracks accurately ripped
No errors occurred
End of status report
---- CUETools DB Plugin V2.1.3
[CTDB TOCID: RZdFtva_J5ajN1_H2PveWzi9jAY-] found, Submit result: RZdFtva_J5ajN1_H2PveWzi9jAY- has been confirmed
[1db860a1] (2/2) Accurately ripped
==== Log checksum D2EFD6B2BB778BA9C682A0A934E6288552918097570AF9EA175A5B98D98FBB34 ====

-

CUE

REM GENRE Classical
REM DATE 1978
REM DISCID C010040E
REM COMMENT "ExactAudioCopy v1.0b3"
PERFORMER "Beethoven"
TITLE "Complete Piano Sonatas CD9"
FILE "01 PS 25 G-Dur Op 79 I. Presto alla tedesca.flac" WAVE
  TRACK 01 AUDIO
    TITLE "Piano Sonata № 25 G-Dur Op 79 – I. Presto alla tedesca"
    PERFORMER "Beethoven"
    INDEX 01 00:00:00
FILE "02 PS 25 G-Dur Op 79 II. Andante.flac" WAVE
  TRACK 02 AUDIO
    TITLE "Piano Sonata № 25 G-Dur Op 79 – II. Andante"
    PERFORMER "Beethoven"
    INDEX 01 00:00:00
FILE "03 PS 25 G-Dur Op 79 III. Vivace.flac" WAVE
  TRACK 03 AUDIO
    TITLE "Piano Sonata № 25 G-Dur Op 79 – III. Vivace"
    PERFORMER "Beethoven"
    INDEX 01 00:00:00
FILE "04 PS 19 g-moll Op 49-1 I. Andante.flac" WAVE
  TRACK 04 AUDIO
    TITLE "Piano Sonata № 19 g-moll Op 49/1 – I. Andante"
    PERFORMER "Beethoven"
    INDEX 01 00:00:00
FILE "05 PS 19 g-moll Op 49-1 II. Rondo - Allegro.flac" WAVE
  TRACK 05 AUDIO
    TITLE "Piano Sonata № 19 g-moll Op 49/1 – II. Rondo: Allegro"
    PERFORMER "Beethoven"
    INDEX 01 00:00:00
FILE "06 PS 26 Es-Dur Op 81a 'Les Adieux' I. Das lebewohl - Adagio. Allegro.flac" WAVE
  TRACK 06 AUDIO
    TITLE "Piano Sonata № 26 Es-Dur Op 81a «Les Adieux» – I. Das lebewohl - Adagio. Allegro"
    PERFORMER "Beethoven"
    INDEX 01 00:00:00
FILE "07 PS 26 Es-Dur Op 81a 'Les Adieux' II. Abwesenheit - Andante espressivo.flac" WAVE
  TRACK 07 AUDIO
    TITLE "Piano Sonata № 26 Es-Dur Op 81a «Les Adieux» – II. Abwesenheit - Andante espressivo"
    PERFORMER "Beethoven"
    INDEX 01 00:00:00
FILE "08 PS 26 Es-Dur Op 81a 'Les Adieux' III. Das wiedersehn - Vivacissimamente (Im lebhaftsten zeitmasse).flac" WAVE
  TRACK 08 AUDIO
    TITLE "Piano Sonata № 26 Es-Dur Op 81a «Les Adieux» – III. Das wiedersehn - Vivacissimamente (Im lebhaftsten zeitmasse)"
    PERFORMER "Beethoven"
    INDEX 01 00:00:00
FILE "09 PS 11 B-Dur Op 22 I. Allegro con brio.flac" WAVE
  TRACK 09 AUDIO
    TITLE "Piano Sonata № 11 B-Dur Op 22 – I. Allegro con brio"
    PERFORMER "Beethoven"
    INDEX 01 00:00:00
FILE "10 PS 11 B-Dur Op 22 II. Adagio con molto espressione.flac" WAVE
  TRACK 10 AUDIO
    TITLE "Piano Sonata № 11 B-Dur Op 22 – II. Adagio con molto espressione"
    PERFORMER "Beethoven"
    INDEX 01 00:00:00
FILE "11 PS 11 B-Dur Op 22 III. Minuetto.flac" WAVE
  TRACK 11 AUDIO
    TITLE "Piano Sonata № 11 B-Dur Op 22 – III. Minuetto"
    PERFORMER "Beethoven"
    INDEX 01 00:00:00
FILE "12 PS 11 B-Dur Op 22 IV. Rondo. Allegretto.flac" WAVE
  TRACK 12 AUDIO
    TITLE "Piano Sonata № 11 B-Dur Op 22 – IV. Rondo. Allegretto"
    PERFORMER "Beethoven"
    INDEX 01 00:00:00
FILE "13 PS 22 F-Dur Op 54 I. In tempo d'un minuetto.flac" WAVE
  TRACK 13 AUDIO
    TITLE "Piano Sonata № 22 F-Dur Op 54 - I. In tempo d'un minuetto"
    PERFORMER "Beethoven"
    INDEX 01 00:00:00
FILE "14 PS 22 F-Dur Op 54 II. Allegretto - Piu allegro.flac" WAVE
  TRACK 14 AUDIO
    TITLE "Piano Sonata № 22 F-Dur Op 54 - II. Allegretto - Piu allegro"
    PERFORMER "Beethoven"
    INDEX 01 00:00:00

-
-



Показать сообщения:    

Текущее время: 05-Дек 15:30

Часовой пояс: UTC + 3


Вы не можете начинать темы
Вы не можете отвечать на сообщения
Вы не можете редактировать свои сообщения
Вы не можете удалять свои сообщения
Вы не можете голосовать в опросах
Вы не можете прикреплять файлы к сообщениям
Вы не можете скачивать файлы