(organ) Organ Music from the Benedictine Monastery at Tihany - Peter Sirak (Buxtehude; Pachelbel; J.S.Bach; Reincken) - 1997, FLAC (tracks+.cue) lossless


 

[Цитировать]

Organ Music from the Benedictine Monastery at Tihany - Péter Sirák
Жанр: organ
Страна-производитель диска: Hungary
Год издания диска: 1997
Издатель (лейбл): Psalmus Records
Номер по каталогу: OVA-010
Дата записи: 1997
Аудиокодек: FLAC
Тип рипа: tracks+.cue
Битрейт аудио: lossless
Продолжительность: 54:03
Источник: релизер
сайт-источник/ник/другое: hixius
Наличие сканов в содержимом раздачи: да
Треклист:
Dieterich Buxtehude (1637-1707)
01. Ciacona in E Minor (BuxWV 160)
Johann Pachelbel (1653-1706)
02.Aria Sebaldina
Johann Sebastian Bach (1685-1750)
Preludium und Fuge D-dur (BWV 532)
03. Preludium
04. Fuge
05. Sonatina aus der Kantate Nr. 106 (BWV 106)
06. "Jesus bleibet meine Freude" - Choral (BWV 147)
07. Air aus der D-dur Suite (BWV 1068-3)
Johann Adam Reincken (1643-1722)
08. Fuge in g-moll
Johann Sebastian Bach (1685-1750)
Fantasie und Fuge in g-moll (BWV 542)
09. Fantasie
10. Fuge
Исполнители:
Péter Sirák - organ

Лог создания рипа

Exact Audio Copy V1.0 beta 3 from 29. August 2011
EAC extraction logfile from 11. October 2015, 17:04
Various Composers / Organ Music from the Benedictine Monastery at Tihany
Used drive : HL-DT-STDVDRAM GH24NSB0 Adapter: 5 ID: 0
Read mode : SecureUtilize accurate stream : YesDefeat audio cache : YesMake use of C2 pointers : No
Read offset correction : 6Overread into Lead-In and Lead-Out : NoFill up missing offset samples with silence : YesDelete leading and trailing silent blocks : NoNull samples used in CRC calculations : YesUsed interface : Native Win32 interface for Win NT & 2000Gap handling : Appended to previous track
Used output format : User Defined EncoderSelected bitrate : 1024 kBit/sQuality : HighAdd ID3 tag : NoCommand line compressor : C:\Program Files (x86)\Exact Audio Copy\Flac\flac.exeAdditional command line options : -8 -V -T "ARTIST=%artist%" -T "TITLE=%title%" -T "ALBUM=%albumtitle%" -T "DATE=%year%" -T "TRACKNUMBER=%tracknr%" -T "TOTALTRACKS=%numtracks%" -T "GENRE=%genre%" -T "ALBUMARTIST=%albumartist%" -T "ALBUM ARTIST=%albumartist%" -T "COMMENT=EAC Secure Mode, Test & Copy, AccurateRip, FLAC -8" %source%
TOC of the extracted CD
Track | Start | Length | Start sector | End sector --------------------------------------------------------- 1 | 0:00.00 | 5:09.73 | 0 | 23247 2 | 5:09.73 | 9:08.18 | 23248 | 64365 3 | 14:18.16 | 4:55.69 | 64366 | 86559 4 | 19:14.10 | 6:05.53 | 86560 | 113987 5 | 25:19.63 | 2:39.54 | 113988 | 125966 6 | 27:59.42 | 3:42.55 | 125967 | 142671 7 | 31:42.22 | 5:06.51 | 142672 | 165672 8 | 36:48.73 | 5:06.00 | 165673 | 188622 9 | 41:54.73 | 5:38.06 | 188623 | 213978 10 | 47:33.04 | 6:29.43 | 213979 | 243196
Track 1
Filename C:\EAC\01 - D. Buxtehude - Ciacona in E Minor (BuxWV 160).wav
Pre-gap length 0:00:02.00
Peak level 60.6 % Extraction speed 1.0 X Track quality 100.0 % Test CRC 9489AC69 Copy CRC 9489AC69 Accurately ripped (confidence 1) [871704B6] (AR v2) Copy OK
Track 2
Filename C:\EAC\02 - J. Pachelbel - Aria Sebaldina.wav
Peak level 34.0 % Extraction speed 1.3 X Track quality 100.0 % Test CRC 2A479FC9 Copy CRC 2A479FC9 Accurately ripped (confidence 1) [17DEBFAE] (AR v2) Copy OK
Track 3
Filename C:\EAC\03 - J. S. Bach - Preludium und Fuge D-dur (BWV 532) - Preludium.wav
Peak level 84.7 % Extraction speed 1.4 X Track quality 100.0 % Test CRC 771EF0FE Copy CRC 771EF0FE Accurately ripped (confidence 1) [7C50669A] (AR v2) Copy OK
Track 4
Filename C:\EAC\04 - J. S. Bach - Preludium und Fuge D-dur (BWV 532) - Fuge.wav
Peak level 43.4 % Extraction speed 1.6 X Track quality 100.0 % Test CRC 5C94BEA2 Copy CRC 5C94BEA2 Accurately ripped (confidence 1) [C78CEE63] (AR v2) Copy OK
Track 5
Filename C:\EAC\05 - J. S. Bach - Sonatina aus der Kantate Nr. 106 (BWV 106).wav
Peak level 25.6 % Extraction speed 1.2 X Track quality 99.9 % Test CRC AF82FA1A Copy CRC AF82FA1A Accurately ripped (confidence 1) [4B925D04] (AR v2) Copy OK
Track 6
Filename C:\EAC\06 - J. S. Bach - 'Jesus bleibet meine Freude' - Choral (BWV 147).wav
Peak level 37.4 % Extraction speed 1.4 X Track quality 99.9 % Test CRC B0E9D4C4 Copy CRC B0E9D4C4 Accurately ripped (confidence 1) [839147E8] (AR v2) Copy OK
Track 7
Filename C:\EAC\07 - J. S. Bach - Air aus der D-dur Suite (BWV 1068-3).wav
Peak level 19.2 % Extraction speed 1.8 X Track quality 100.0 % Test CRC 56330A40 Copy CRC 56330A40 Accurately ripped (confidence 1) [5BF96159] (AR v2) Copy OK
Track 8
Filename C:\EAC\08 - J. A. Reincken - Fuge in g-moll.wav
Peak level 27.8 % Extraction speed 1.9 X Track quality 100.0 % Test CRC AA82CCEB Copy CRC AA82CCEB Accurately ripped (confidence 1) [A10C6E59] (AR v2) Copy OK
Track 9
Filename C:\EAC\09 - J. S. Bach - Fantasie und Fuge in g-moll (BWV 542) - Fantasie.wav
Peak level 90.0 % Extraction speed 2.0 X Track quality 100.0 % Test CRC 93032DFD Copy CRC 93032DFD Accurately ripped (confidence 1) [0423FC6F] (AR v2) Copy OK
Track 10
Filename C:\EAC\10 - J. S. Bach - Fantasie und Fuge in g-moll (BWV 542) - Fuge.wav
Peak level 80.3 % Extraction speed 2.1 X Track quality 100.0 % Test CRC E9273459 Copy CRC E9273459 Accurately ripped (confidence 1) [18B29AA2] (AR v2) Copy OK
All tracks accurately ripped
No errors occurred
End of status report
==== Log checksum 04BC11A98E5694AF2A6B3345FFAC49CF1F5A236D48890365E017A0E75F957ABB ====

Содержание индексной карты (.CUE)

REM GENRE OrganREM DATE 1997REM DISCID 700CAA0AREM COMMENT "ExactAudioCopy v1.0b3"PERFORMER "Various Composers"TITLE "Organ Music from the Benedictine Monastery at Tihany"FILE "01 - D. Buxtehude - Ciacona in E Minor (BuxWV 160).wav" WAVE TRACK 01 AUDIO TITLE "Ciacona in E Minor (BuxWV 160)" PERFORMER "D. Buxtehude" INDEX 01 00:00:00FILE "02 - J. Pachelbel - Aria Sebaldina.wav" WAVE TRACK 02 AUDIO TITLE "Aria Sebaldina" PERFORMER "J. Pachelbel" INDEX 01 00:00:00FILE "03 - J. S. Bach - Preludium und Fuge D-dur (BWV 532) - Preludium.wav" WAVE TRACK 03 AUDIO TITLE "Preludium und Fuge D-dur (BWV 532) - Preludium" PERFORMER "J. S. Bach" INDEX 01 00:00:00FILE "04 - J. S. Bach - Preludium und Fuge D-dur (BWV 532) - Fuge.wav" WAVE TRACK 04 AUDIO TITLE "Preludium und Fuge D-dur (BWV 532) - Fuge" PERFORMER "J. S. Bach" INDEX 01 00:00:00FILE "05 - J. S. Bach - Sonatina aus der Kantate Nr. 106 (BWV 106).wav" WAVE TRACK 05 AUDIO TITLE "Sonatina aus der Kantate Nr. 106 (BWV 106)" PERFORMER "J. S. Bach" INDEX 01 00:00:00FILE "06 - J. S. Bach - 'Jesus bleibet meine Freude' - Choral (BWV 147).wav" WAVE TRACK 06 AUDIO TITLE "'Jesus bleibet meine Freude' - Choral (BWV 147)" PERFORMER "J. S. Bach" INDEX 01 00:00:00FILE "07 - J. S. Bach - Air aus der D-dur Suite (BWV 1068-3).wav" WAVE TRACK 07 AUDIO TITLE "Air aus der D-dur Suite (BWV 1068-3)" PERFORMER "J. S. Bach" INDEX 01 00:00:00FILE "08 - J. A. Reincken - Fuge in g-moll.wav" WAVE TRACK 08 AUDIO TITLE "Fuge in g-moll" PERFORMER "J. A. Reincken" INDEX 01 00:00:00FILE "09 - J. S. Bach - Fantasie und Fuge in g-moll (BWV 542) - Fantasie.wav" WAVE TRACK 09 AUDIO TITLE "Fantasie und Fuge in g-moll (BWV 542) - Fantasie" PERFORMER "J. S. Bach" INDEX 01 00:00:00FILE "10 - J. S. Bach - Fantasie und Fuge in g-moll (BWV 542) - Fuge.wav" WAVE TRACK 10 AUDIO TITLE "Fantasie und Fuge in g-moll (BWV 542) - Fuge" PERFORMER "J. S. Bach" INDEX 01 00:00:00

Лог проверки качества

AUDIOCHECKER v2.0 beta (build 457) - by Dester - opdester@freemail.hu~~~~~~~~~~~~~~~~~~~~~~~~~~~~~~~~~~-=== DO NOT EDIT THIS FILE! ===-
Path: ...\Peter Sirak - Organ Music from the Benedictine Monastery at Tihany (1997) [FLAC]
01 -=- 01 - D. Buxtehude - Ciacona in E Minor (BuxWV 160).flac -=- ERROR02 -=- 02 - J. Pachelbel - Aria Sebaldina.flac -=- MPEG (91%)03 -=- 03 - J. S. Bach - Preludium und Fuge D-dur (BWV 532) - Preludium.flac -=- ERROR04 -=- 04 - J. S. Bach - Preludium und Fuge D-dur (BWV 532) - Fuge.flac -=- ERROR05 -=- 05 - J. S. Bach - Sonatina aus der Kantate Nr. 106 (BWV 106).flac -=- MPEG (100%)06 -=- 06 - J. S. Bach - 'Jesus bleibet meine Freude' - Choral (BWV 147).flac -=- CDDA (100%)07 -=- 07 - J. S. Bach - Air aus der D-dur Suite (BWV 1068-3).flac -=- MPEG (89%)08 -=- 08 - J. A. Reincken - Fuge in g-moll.flac -=- ERROR09 -=- 09 - J. S. Bach - Fantasie und Fuge in g-moll (BWV 542) - Fantasie.flac -=- ERROR10 -=- 10 - J. S. Bach - Fantasie und Fuge in g-moll (BWV 542) - Fuge.flac -=- ERROR
Summary 30,00% CDDA
6653732

Скриншот спектра частот

about Péter Sirák

Péter Sirák was born in Budapest in 1950. He graduated from the Hungarian Academy of Music in Budapest as organist in 1976, and as conductor in 1982. He finished his studies in church music in 1996. At his diploma concert he played Sándor Sxokolay's „Organ fantasy for two players". In 1976-77 he studied organ music in Weimar.
From 1978 to 1996 he was organist at the Franciscan Church in Pest, while in 1993 he was appointed choirmaster. In 1993 István Koloss' oratorio, 'Hymn to the Sun', was sung by his choir for the first time in Hungary. Since 1993 he has taught as senior lecturer at Zsámbék Catholic Teacher Training College Since 1994 he has also taught in the Department of Church Music at the Academy of Music in Budapest, he spent the academic year 1996-97 teaching in Japan.
With support from the Soros foundation he established and carried out, between 1985 and 1988, a national survey of organs in Hungary.
Péter Sirák gives regular concerts in Hungary and Germany, and has given performances in Britain, France, Switzerland, Sweden, Israel and Japan.
Two recordings of choir music with his organ accompaniment, and two CDs of organ music have been published: on one he plays the organ of the Great Reformed Church in Debrecen, on the other the organ of Tihany Abbey.



Показать сообщения:    

Текущее время: 04-Дек 19:16

Часовой пояс: UTC + 3


Вы не можете начинать темы
Вы не можете отвечать на сообщения
Вы не можете редактировать свои сообщения
Вы не можете удалять свои сообщения
Вы не можете голосовать в опросах
Вы не можете прикреплять файлы к сообщениям
Вы не можете скачивать файлы