(Classical) Edward Elgar - Enigma Variations (original piano version), Concert Allegro and other piano music - Maria Garzon - 1999, FLAC (image+.cue) lossless


 

[Цитировать]

Edward Elgar - Enigma Variations (original piano version), Concert Allegro
Жанр: Classical
Страна-производитель диска: England
Год издания диска: 1999
Издатель (лейбл): ASV Ltd.
Номер по каталогу: CD DCA 1065
Аудиокодек: FLAC
Тип рипа: image+.cue
Битрейт аудио: lossless
Продолжительность: 01:17:21
Источник: собственный рип
Наличие сканов в содержимом раздачи: да
Треклист:
Variations on an original theme - 'Enigma', Op.36
01. 1.1 Andante, 1.2 Variatio... (3:13)
02. Variation 2 - Allegro (H.D.S.P.) (0:51)
03. Variation 3 - Allegretto (R.B.T.) (1:18)
04. Variation 4 - Allegro di molto (W.M.B.) (0:35)
05. 5.1 Variation 5 - Moderato (R.P.A.) 5.2 Variation 6 - Andantino (Ysobel) (3:36)
06. Variation 7 - Presto (Troyte) (1:05)
07. 7.1 Variation 8 - Allegretto (W.N.) 7.2 Variation 9 - Adagio (Nimrod) (4:59)
08. Variation 10 - Intermezzo - Allegretto (Dorabella) (2:38)
09. Variation 11 - Allegro di molto (G.R.S.) (1:06)
10. 10.1 Variation 12 - Andante (B.G.N.) 10.2 Variation 13 - Moderato (***) (5:05)
11. Finale - Allegro (E.D.U.) (5:57)
12. In Smyrna (4:21)
13. Serenade (2:46)
14. Presto (2:02)
15. Adieu (2:28)
16. Skizze (1:16)
17. Griffinesque (0:39)
18. Salut D'amour, Op. 12 (3:42)
Sonatina
19. First movement: Andantino (2:23)
20. Second movement: Allegro (1:32)
Dream Children, Op. 43
21. No.1 - Andantino (2:38)
22. No.2 - Allegretto piacevole (3:09)
23. Concert Allegro, Op. 46 (10:03)

Исполнители:
Maria Garzon

Лог создания рипа

Exact Audio Copy V1.0 beta 3 from 29. August 2011
Отчёт EAC об извлечении, выполненном 24. ноября 2015, 21:34
Elgar / Enigma Variations
Дисковод: ASUS DRW-1814BL Adapter: 1 ID: 1
Режим чтения : ДостоверностьИспользование точного потока : ДаОтключение кэша аудио : ДаИспользование указателей C2 : Нет
Коррекция смещения при чтении : 6Способность читать области Lead-in и Lead-out : НетЗаполнение пропущенных сэмплов тишиной : ДаУдаление блоков с тишиной в начале и конце : НетПри вычислениях CRC использовались нулевые сэмплы : ДаИнтерфейс : Встроенный Win32-интерфейс для Win NT/2000
Выходной формат : Пользовательский кодировщикВыбранный битрейт : 128 kBit/sКачество : ВысокийДобавление ID3-тега : НетУтилита сжатия : C:\Program Files\Exact Audio Copy\Flac\flac.exeДополнительные параметры : -V -8 -T "Date=%year%" -T "Genre=%genre%" %source%
TOC извлечённого CD
Трек | Старт | Длительность | Начальный сектор | Конечный сектор --------------------------------------------------------------------- 1 | 0:00.00 | 3:13.05 | 0 | 14479 2 | 3:13.05 | 0:50.46 | 14480 | 18275 3 | 4:03.51 | 1:18.13 | 18276 | 24138 4 | 5:21.64 | 0:34.41 | 24139 | 26729 5 | 5:56.30 | 3:35.43 | 26730 | 42897 6 | 9:31.73 | 1:04.42 | 42898 | 47739 7 | 10:36.40 | 4:58.44 | 47740 | 70133 8 | 15:35.09 | 2:38.17 | 70134 | 82000 9 | 18:13.26 | 1:05.40 | 82001 | 86915 10 | 19:18.66 | 5:05.29 | 86916 | 109819 11 | 24:24.20 | 5:56.53 | 109820 | 136572 12 | 30:20.73 | 4:20.50 | 136573 | 156122 13 | 34:41.48 | 2:45.43 | 156123 | 168540 14 | 37:27.16 | 2:01.66 | 168541 | 177681 15 | 39:29.07 | 2:27.67 | 177682 | 188773 16 | 41:56.74 | 1:16.08 | 188774 | 194481 17 | 43:13.07 | 0:38.61 | 194482 | 197392 18 | 43:51.68 | 3:41.42 | 197393 | 214009 19 | 47:33.35 | 2:23.12 | 214010 | 224746 20 | 49:56.47 | 1:32.36 | 224747 | 231682 21 | 51:29.08 | 2:37.58 | 231683 | 243515 22 | 54:06.66 | 3:09.04 | 243516 | 257694 23 | 57:15.70 | 10:02.55 | 257695 | 302899
Характеристики диапазона извлечения и сообщения об ошибках
Выбранный диапазон
Имя файла C:\Documents and Settings\biotox\Рабочий стол\Новая папка (2)\Elgar - Enigma Variations.wav
Пиковый уровень 93.6 % Скорость извлечения 9.1 X Качество диапазона 100.0 % CRC теста 86C5EA3F CRC копии 86C5EA3F Копирование... OK
Ошибок не произошло
AccurateRip: сводка
Трек 1 : извлечено точно (доверие 2) [9C40F7FF] (AR v2)Трек 2 : извлечено точно (доверие 2) [2B2A806A] (AR v2)Трек 3 : извлечено точно (доверие 2) [D80CE609] (AR v2)Трек 4 : извлечено точно (доверие 2) [73C3466C] (AR v2)Трек 5 : извлечено точно (доверие 2) [6FD087F3] (AR v2)Трек 6 : извлечено точно (доверие 2) [6154AF73] (AR v2)Трек 7 : извлечено точно (доверие 2) [6DCDFD38] (AR v2)Трек 8 : извлечено точно (доверие 2) [EC3FCD09] (AR v2)Трек 9 : извлечено точно (доверие 2) [6E90C8C5] (AR v2)Трек 10 : извлечено точно (доверие 2) [373E01BF] (AR v2)Трек 11 : извлечено точно (доверие 2) [BEC443E5] (AR v2)Трек 12 : извлечено точно (доверие 2) [491E902A] (AR v2)Трек 13 : извлечено точно (доверие 2) [20349440] (AR v2)Трек 14 : извлечено точно (доверие 2) [C181ABCA] (AR v2)Трек 15 : извлечено точно (доверие 2) [3187E39A] (AR v2)Трек 16 : извлечено точно (доверие 2) [B5B79076] (AR v2)Трек 17 : извлечено точно (доверие 2) [EC36F9A5] (AR v2)Трек 18 : извлечено точно (доверие 2) [59741A9D] (AR v2)Трек 19 : извлечено точно (доверие 2) [D78BFB18] (AR v2)Трек 20 : извлечено точно (доверие 2) [C4B12538] (AR v2)Трек 21 : извлечено точно (доверие 2) [C181DE7C] (AR v2)Трек 22 : извлечено точно (доверие 2) [BBBC1276] (AR v2)Трек 23 : извлечено точно (доверие 2) [D99C11B5] (AR v2)
Все треки извлечены точно
Конец отчёта
==== Контрольная сумма отчёта 632BC19118BA638EBAF465C724790A9EB09004A33686BBA72E6D68481BA2218B ====

Замер динамического диапазона

foobar2000 1.2.9 / Замер динамического диапазона (DR) 1.1.1Дата отчёта: 2015-11-28 20:27:35
--------------------------------------------------------------------------------Анализ: Elgar / Enigma Variations--------------------------------------------------------------------------------
DR Пики RMS Продолжительность трека--------------------------------------------------------------------------------DR15 -3.76 дБ -27.05 дБ 3:13 01-Variations on an original theme - 'Enigma', Op.36 - 1.1 Andante, 1.2 Variatio...DR11 -8.37 дБ -25.22 дБ 0:51 02-Variation 2 - Allegro (H.D.S.P.)DR12 -3.30 дБ -20.48 дБ 1:18 03-Variation 3 - Allegretto (R.B.T.)DR11 -0.57 дБ -16.24 дБ 0:35 04-Variation 4 - Allegro di molto (W.M.B.)DR14 -5.41 дБ -25.47 дБ 3:36 05-5.1 Variation 5 - Moderato (R.P.A.) 5.2 Variation 6 - Andantino (Ysobel)DR13 -0.93 дБ -18.23 дБ 1:05 06-Variation 7 - Presto (Troyte)DR15 -2.03 дБ -22.29 дБ 4:59 07-7.1 Variation 8 - Allegretto (W.N.) 7.2 Variation 9 - Adagio (Nimrod)DR14 -7.40 дБ -26.31 дБ 2:38 08-Variation 10 - Intermezzo - Allegretto (Dorabella)DR12 -4.12 дБ -18.70 дБ 1:06 09-Variation 11 - Allegro di molto (G.R.S.)DR15 -5.90 дБ -28.33 дБ 5:05 10-10.1 Variation 12 - Andante (B.G.N.) 10.2 Variation 13 - Moderato (***)DR13 -1.00 дБ -16.91 дБ 5:57 11-Finale - Allegro (E.D.U.)DR14 -7.68 дБ -27.61 дБ 4:21 12-In SmyrnaDR13 -10.41 дБ -27.84 дБ 2:46 13-SerenadeDR12 -2.26 дБ -20.52 дБ 2:02 14-PrestoDR13 -11.07 дБ -30.75 дБ 2:28 15-AdieuDR12 -8.96 дБ -26.63 дБ 1:16 16-SkizzeDR11 -12.49 дБ -27.47 дБ 0:39 17-GriffinesqueDR14 -6.30 дБ -26.51 дБ 3:42 18-Salut D'amour, Op. 12DR13 -11.76 дБ -32.37 дБ 2:23 19-Sonatina First movement: AndantinoDR13 -4.74 дБ -22.83 дБ 1:32 20-Second movement: AllegroDR14 -6.28 дБ -30.75 дБ 2:38 21-Dream Children, Op. 43 No.1 - AndantinoDR12 -11.92 дБ -28.67 дБ 3:09 22-No.2 - Allegretto piacevoleDR14 -0.59 дБ -19.66 дБ 10:03 23-Concert Allegro, Op. 46--------------------------------------------------------------------------------
Количество треков: 23Реальные значения DR: DR13
Частота: 44100 ГцКаналов: 2Разрядность: 16Битрейт: 396 кбит/сКодек: FLAC================================================================================



Показать сообщения:    

Текущее время: 03-Дек 12:39

Часовой пояс: UTC + 3


Вы не можете начинать темы
Вы не можете отвечать на сообщения
Вы не можете редактировать свои сообщения
Вы не можете удалять свои сообщения
Вы не можете голосовать в опросах
Вы не можете прикреплять файлы к сообщениям
Вы не можете скачивать файлы