(Classical) Beethoven - Piano Sonatas, Opp. 2, 101 & 106 \'Hammerklavier\' - Paavali Jumppanen - 2014, FLAC (image+.cue) lossless


 

[Цитировать]

Beethoven - Piano Sonatas, Opp. 2, 101 & 106 'Hammerklavier' - Paavali Jumppanen
Жанр: Classical
Страна-производитель диска: Finland
Год издания диска: 2014
Издатель (лейбл): Ondine
Номер по каталогу: ODE 1248-2D
Дата записи: 2011, 2012
Аудиокодек: FLAC
Тип рипа: image+.cue
Битрейт аудио: lossless
Продолжительность: 143:37
Источник: собственный рип
Наличие сканов в содержимом раздачи: да
Треклист:
Ludwig van Beethoven
CD1
[1]-[4] Sonata in F Minor, Op. 2 No. 1
[5]-[8] Sonata in A Major, Op. 2 No. 2
[9]-[12] Sonata in C Major, Op. 2 No. 3
CD2
[1]-[4] Sonata in A Major, Op. 101
[5]-[8] Grand Sonata in B-flat Major, Op. 106 “Hammerklavier”
Исполнители:
Paavali Jumppanen piano

Лог создания рипа: CD1

Exact Audio Copy V1.0 beta 3 from 29. August 2011
EAC extraction logfile from 29. March 2015, 1:09
Paavali Jumppanen / Beethoven - Piano Sonatas, Op.2
Used drive : HL-DT-STDVDRAM GU70N Adapter: 0 ID: 0
Read mode : SecureUtilize accurate stream : YesDefeat audio cache : YesMake use of C2 pointers : No
Read offset correction : 48Overread into Lead-In and Lead-Out : NoFill up missing offset samples with silence : YesDelete leading and trailing silent blocks : NoNull samples used in CRC calculations : YesUsed interface : Native Win32 interface for Win NT & 2000
Used output format : User Defined EncoderSelected bitrate : 128 kBit/sQuality : HighAdd ID3 tag : NoCommand line compressor : C:\Program Files (x86)\Exact Audio Copy\Flac\flac.exeAdditional command line options : -V -8 -T "Date=%year%" -T "Genre=%genre%" %source%
TOC of the extracted CD
Track | Start | Length | Start sector | End sector --------------------------------------------------------- 1 | 0:00.00 | 5:45.38 | 0 | 25912 2 | 5:45.38 | 5:33.64 | 25913 | 50951 3 | 11:19.27 | 3:55.67 | 50952 | 68643 4 | 15:15.19 | 7:05.68 | 68644 | 100586 5 | 22:21.12 | 10:28.68 | 100587 | 147754 6 | 32:50.05 | 6:59.70 | 147755 | 179249 7 | 39:50.00 | 4:27.13 | 179250 | 199287 8 | 44:17.13 | 6:35.51 | 199288 | 228963 9 | 50:52.64 | 9:34.48 | 228964 | 272061 10 | 60:27.37 | 7:38.29 | 272062 | 306440 11 | 68:05.66 | 3:26.08 | 306441 | 321898 12 | 71:31.74 | 4:50.09 | 321899 | 343657
Range status and errors
Selected range
Filename C:\temp\Beethoven - Piano Sonatas, Opp. 2, 101 & 106 - Jumppanen\CD1\Beethoven - Piano Sonatas, Op.2.wav
Peak level 100.0 % Extraction speed 2.3 X Range quality 100.0 % Test CRC 515CF548 Copy CRC 515CF548 Copy OK
No errors occurred
AccurateRip summary
Track 1 not present in databaseTrack 2 not present in databaseTrack 3 not present in databaseTrack 4 not present in databaseTrack 5 not present in databaseTrack 6 not present in databaseTrack 7 not present in databaseTrack 8 not present in databaseTrack 9 not present in databaseTrack 10 not present in databaseTrack 11 not present in databaseTrack 12 not present in database
None of the tracks are present in the AccurateRip database
End of status report
==== Log checksum F8C670CA1FCEACDEA5C35967BB590EC6667CB6A3FCB83EC5DFB67180F6A4B733 ====

Лог создания рипа: CD2

Exact Audio Copy V1.0 beta 3 from 29. August 2011
EAC extraction logfile from 29. March 2015, 2:19
Paavali Jumppanen / Beethoven - Piano Sonatas, Opp. 101 & 106
Used drive : HL-DT-STDVDRAM GU70N Adapter: 0 ID: 0
Read mode : SecureUtilize accurate stream : YesDefeat audio cache : YesMake use of C2 pointers : No
Read offset correction : 48Overread into Lead-In and Lead-Out : NoFill up missing offset samples with silence : YesDelete leading and trailing silent blocks : NoNull samples used in CRC calculations : YesUsed interface : Native Win32 interface for Win NT & 2000
Used output format : User Defined EncoderSelected bitrate : 128 kBit/sQuality : HighAdd ID3 tag : NoCommand line compressor : C:\Program Files (x86)\Exact Audio Copy\Flac\flac.exeAdditional command line options : -V -8 -T "Date=%year%" -T "Genre=%genre%" %source%
TOC of the extracted CD
Track | Start | Length | Start sector | End sector --------------------------------------------------------- 1 | 0:00.00 | 4:08.50 | 0 | 18649 2 | 4:08.50 | 6:19.29 | 18650 | 47103 3 | 10:28.04 | 2:53.12 | 47104 | 60090 4 | 13:21.16 | 7:41.15 | 60091 | 94680 5 | 21:02.31 | 12:08.06 | 94681 | 149286 6 | 33:10.37 | 3:03.16 | 149287 | 163027 7 | 36:13.53 | 18:57.41 | 163028 | 248343 8 | 55:11.19 | 12:03.73 | 248344 | 302641
Range status and errors
Selected range
Filename C:\temp\Beethoven - Piano Sonatas, Opp. 2, 101 & 106 - Jumppanen\CD2\Beethoven - Piano Sonatas, Opp. 101 & 106.wav
Peak level 98.8 % Extraction speed 2.2 X Range quality 100.0 % Test CRC F1D2A05A Copy CRC F1D2A05A Copy OK
No errors occurred
AccurateRip summary
Track 1 not present in databaseTrack 2 not present in databaseTrack 3 not present in databaseTrack 4 not present in databaseTrack 5 not present in databaseTrack 6 not present in databaseTrack 7 not present in databaseTrack 8 not present in database
None of the tracks are present in the AccurateRip database
End of status report
==== Log checksum 6CFF50BB1C461E32B1069A899CD1F1A32AF1AD82B09E75F3238C8603F7D24131 ====



Показать сообщения:    

Текущее время: 10-Дек 08:03

Часовой пояс: UTC + 3


Вы не можете начинать темы
Вы не можете отвечать на сообщения
Вы не можете редактировать свои сообщения
Вы не можете удалять свои сообщения
Вы не можете голосовать в опросах
Вы не можете прикреплять файлы к сообщениям
Вы не можете скачивать файлы