(Baroque / Concerto Grossi / Oboe) Antonio Vivaldi ● Complete Oboe Concertos (Concerti per oboe) ● I Musici ● Heinz Holliger ● Maurice Bourgue ● Pina Carmirelli ● Klaus Thunemann - 1993, FLAC (tracks+.cue) lossless


Статистика раздачи [Обновить пиров]
Размер:  1.17 GB   |    Зарегистрирован:  1 год   |    Скачан:  0 раз

Полного источника не было: Никогда

Личеров:  1  [  0 KB/s  ]   Подробная статистика пиров
 
   
 
 
 

[Цитировать]

Antonio Vivaldi
Complete Oboe Concertos
Жанр: Baroque / Concerto Grossi / Oboe
Страна-производитель диска: Japan
Год издания диска: ≈ 1993
Издатель (лейбл): Philips Japan
Номер по каталогу: PHCP-3152~4
Дата записи: 1976-1982
Аудиокодек: FLAC
Тип рипа: tracks+.cue
Битрейт аудио: lossless
Источник: собственный рип
Наличие сканов в содержимом раздачи: да
Исполнители:
I Musici ● Heinz Holliger - oboe ● Maurice Bourgue - oboe (RV 534, 535, 536) ● Pina Carmirelli - violin (RV 548, 543) ● Klaus Thunemann - bassoon (RV 545)

ТреклистCD 1

Oboe Concerto in A minor, RV 463
1. I. Allegro
2. II. [Largo]
3. III. Allegro
Oboe Concerto in C major, RV 447
4. I. Allegro non molto
5. II. Larghetto
6. III. Menuet
Concerto for Oboe & Bassoon in G major, RV 545
7. I. Andante molto
8. II. Largo
9. III. Allegro molto
Oboe Concerto in D major, RV 453
10. I. Allegro
11. II. Largo
12. III. Allegro
Oboe Concerto In G Minor, Op. 11 6, RV 460
13. I. Allegro non molto
14. II. Largo
15. III. Allegro non molto
Oboe Concerto in C major, RV 450
16. I. Allegro molto
17. II. Larghetto
18. III. Allegro
Oboe Concerto in A minor, RV 462
19. I. Allegro
20. II. Adagio
21. III. Allegro

CD 2

Oboe Concerto in D minor, RV 454
1. I. Allegro
2. II. Largo
3. III. Allegro
Oboe Concerto in C major, RV 451
4. I. Allegro molto
5. II. Largo
6. III. Allegro
Oboe Concerto in A minor, RV 461
7. I. Allegro non molto
8. II. Larghetto
9. III. Allegro
Concerto for 2 Oboes in C major, RV 534
10. I. Allegro
11. II. Largo
12. III. Allegro
Oboe Concerto in F major, RV 457
13. I. Allegro non molto
14. II. Andante
15. III. Allegro molto
Concerto for Oboe and Violin in B-flat major, RV 548
16. I. (Allegro)
17. II. Largo
18. III. Allegro
Oboe Concerto in B-flat major, RV 464
19. I. Allegro
20. II. Largo
21. III. Allegro
Oboe Concerto in F, RV 456
22. I. Allegro
23. II. Adagio
24. III. Presto
Oboe Concerto in C Major. RV 452
25. I. Allegro
26. II. Adagio
27. III. Allegro

CD 3

Oboe Concerto in C major, RV 449
1. I. Allegro
2. II. Largo
3. III. Allegro
Oboe Concerto in F major, RV 455
4. I. Allegro
5. II. Grave
6. III. Allegro
Oboe Concerto in C major, RV 448
7. I. Allegro non molto
8. II. Larghetto
9. III. Presto
Oboe Concerto in F Major, RV 458
10. I. Allegro
11. II. Adagio e staccato
12. III. Allegro - Presto
Concerto for 2 Oboes in D minor, RV 535
13. I. Largo - Allegro
14. II. Largo
15. III. Allegro molto
Oboe Concerto in C Major, RV 446
16. I. (Allegro)
17. II. Adagio
18. III. Allegro
Concerto for 2 Oboes in A minor, RV 536
20. I. Allegro
21. II. Largo
22. III. Allegro
Oboe Concerto in B-flat major, RV 465
23. I. Allegro
24. II. Adagio
25. III. Allegro
Concerto for violin, oboe, strings, & continuo in F, RV543
26. I. Allegro
27. II. Allegro alla Francese
29. III. Allegro
30. IV. Minuet

Лог создания рипаCD 1

X Lossless Decoder version 20141129 (148.1)
XLD extraction logfile from 2015-11-16 18:37:13 +0200
Heinz Holliger: I Musici / Vivaldi Concerti Per Oboe
Used drive : PIONEER DVD-RW DVRTD11RS (revision 1.01)Media type : Pressed CD
Ripper mode : XLD Secure RipperDisable audio cache : OK for the drive with a cache less than 1375KiBMake use of C2 pointers : NORead offset correction : 6Max retry count : 20Gap status : Analyzed, Appended
TOC of the extracted CD Track | Start | Length | Start sector | End sector --------------------------------------------------------- 1 | 00:00:00 | 03:24:00 | 0 | 15299 2 | 03:24:00 | 03:04:50 | 15300 | 29149 3 | 06:28:50 | 03:16:25 | 29150 | 43874 4 | 09:45:00 | 05:13:25 | 43875 | 67374 5 | 14:58:25 | 04:22:50 | 67375 | 87074 6 | 19:21:00 | 05:17:00 | 87075 | 110849 7 | 24:38:00 | 03:39:00 | 110850 | 127274 8 | 28:17:00 | 02:52:00 | 127275 | 140174 9 | 31:09:00 | 03:44:37 | 140175 | 157011 10 | 34:53:37 | 03:12:38 | 157012 | 171449 11 | 38:06:00 | 02:15:50 | 171450 | 181624 12 | 40:21:50 | 03:25:00 | 181625 | 196999 13 | 43:46:50 | 04:04:62 | 197000 | 215361 14 | 47:51:37 | 04:11:63 | 215362 | 234249 15 | 52:03:25 | 03:35:25 | 234250 | 250399 16 | 55:38:50 | 04:22:00 | 250400 | 270049 17 | 60:00:50 | 03:34:62 | 270050 | 286161 18 | 63:35:37 | 03:05:38 | 286162 | 300074 19 | 66:41:00 | 01:59:25 | 300075 | 309024 20 | 68:40:25 | 02:38:12 | 309025 | 320886 21 | 71:18:37 | 02:04:38 | 320887 | 330224
AccurateRip Summary Disc not found in AccurateRip DB.
All Tracks Album gain : -0.08 dB Peak : 0.901550 Statistics Read error : 0 Jitter error (maybe fixed) : 0 Retry sector count : 0 Damaged sector count : 0
Track 01 Filename : /Users/User/Music/iTunes/XLD files/01 - Concerto A-Moll Rv.463-1 Allegro.flac Pre-gap length : 00:02:00
Track gain : -0.88 dB Peak : 0.710327 CRC32 hash (test run) : 1C559B61 CRC32 hash : 1C559B61 CRC32 hash (skip zero) : 87FCC0AD AccurateRip v1 signature : 25E74392 AccurateRip v2 signature : 635C31C5 ->Track not present in AccurateRip database. Statistics Read error : 0 Jitter error (maybe fixed) : 0 Retry sector count : 0 Damaged sector count : 0
Track 02 Filename : /Users/User/Music/iTunes/XLD files/02 - Concerto A-Moll Rv.463-2 Largo.flac Pre-gap length : 00:00:74
Track gain : 4.04 dB Peak : 0.413544 CRC32 hash (test run) : 4EA79096 CRC32 hash : 4EA79096 CRC32 hash (skip zero) : A5731201 AccurateRip v1 signature : 8991E83F AccurateRip v2 signature : 707A8E54 ->Track not present in AccurateRip database. Statistics Read error : 0 Jitter error (maybe fixed) : 0 Retry sector count : 0 Damaged sector count : 0
Track 03 Filename : /Users/User/Music/iTunes/XLD files/03 - Concerto A-Moll Rv.463-3 Allegro.flac
Track gain : -2.11 dB Peak : 0.901550 CRC32 hash (test run) : 3FD848FD CRC32 hash : 3FD848FD CRC32 hash (skip zero) : 36123F2B AccurateRip v1 signature : C24C4420 AccurateRip v2 signature : 34F31DE4 ->Track not present in AccurateRip database. Statistics Read error : 0 Jitter error (maybe fixed) : 0 Retry sector count : 0 Damaged sector count : 0
Track 04 Filename : /Users/User/Music/iTunes/XLD files/04 - Concerto C-Dur Rv.447-1 Allegro Non Troppo.flac Pre-gap length : 00:07:74
Track gain : 0.41 dB Peak : 0.783234 CRC32 hash (test run) : ECF5A975 CRC32 hash : ECF5A975 CRC32 hash (skip zero) : 7861B3C6 AccurateRip v1 signature : 109C3911 AccurateRip v2 signature : B0EC89B4 ->Track not present in AccurateRip database. Statistics Read error : 0 Jitter error (maybe fixed) : 0 Retry sector count : 0 Damaged sector count : 0
Track 05 Filename : /Users/User/Music/iTunes/XLD files/05 - Concerto C-Dur Rv.447-2 Larghetto.flac Pre-gap length : 00:02:24
Track gain : 2.26 dB Peak : 0.503143 CRC32 hash (test run) : E375B342 CRC32 hash : E375B342 CRC32 hash (skip zero) : DCB2CF81 AccurateRip v1 signature : 7D506A66 AccurateRip v2 signature : 28CE0C95 ->Track not present in AccurateRip database. Statistics Read error : 0 Jitter error (maybe fixed) : 0 Retry sector count : 0 Damaged sector count : 0
Track 06 Filename : /Users/User/Music/iTunes/XLD files/06 - Concerto C-Dur Rv.447-3 Minuetto.flac Pre-gap length : 00:01:74
Track gain : -1.48 dB Peak : 0.764435 CRC32 hash (test run) : 8B94115D CRC32 hash : 8B94115D CRC32 hash (skip zero) : 8FC80FED AccurateRip v1 signature : 1714033B AccurateRip v2 signature : 2B9039EE ->Track not present in AccurateRip database. Statistics Read error : 0 Jitter error (maybe fixed) : 0 Retry sector count : 0 Damaged sector count : 0
Track 07 Filename : /Users/User/Music/iTunes/XLD files/07 - Vivaldi: Concerto For Oboe & Bassoon In G, RV 545 - 1. Andante.flac Pre-gap length : 00:07:74
Track gain : 0.20 dB Peak : 0.722626 CRC32 hash (test run) : 2E541B11 CRC32 hash : 2E541B11 CRC32 hash (skip zero) : 068B4337 AccurateRip v1 signature : 76836D51 AccurateRip v2 signature : 63C51F83 ->Track not present in AccurateRip database. Statistics Read error : 0 Jitter error (maybe fixed) : 0 Retry sector count : 0 Damaged sector count : 0
Track 08 Filename : /Users/User/Music/iTunes/XLD files/08 - Vivaldi: Concerto For Oboe & Bassoon In G, RV 545 - 2. Largo.flac
Track gain : 4.77 dB Peak : 0.369049 CRC32 hash (test run) : 8C957401 CRC32 hash : 8C957401 CRC32 hash (skip zero) : 00A04BC3 AccurateRip v1 signature : C8084546 AccurateRip v2 signature : 2977BD87 ->Track not present in AccurateRip database. Statistics Read error : 0 Jitter error (maybe fixed) : 0 Retry sector count : 0 Damaged sector count : 0
Track 09 Filename : /Users/User/Music/iTunes/XLD files/09 - Vivaldi: Concerto For Oboe & Bassoon In G, RV 545 - 3. Allegro Molto.flac
Track gain : 1.92 dB Peak : 0.646332 CRC32 hash (test run) : E9891116 CRC32 hash : E9891116 CRC32 hash (skip zero) : 256F3775 AccurateRip v1 signature : 5BAC74DA AccurateRip v2 signature : 582BCBF8 ->Track not present in AccurateRip database. Statistics Read error : 0 Jitter error (maybe fixed) : 0 Retry sector count : 0 Damaged sector count : 0
Track 10 Filename : /Users/User/Music/iTunes/XLD files/10 - Concerto D-Dur Rv.453-1 Allegro.flac Pre-gap length : 00:08:36
Track gain : -0.42 dB Peak : 0.792389 CRC32 hash (test run) : 8D556FD8 CRC32 hash : 8D556FD8 CRC32 hash (skip zero) : 36B5A676 AccurateRip v1 signature : 86570854 AccurateRip v2 signature : 28AC2B16 ->Track not present in AccurateRip database. Statistics Read error : 0 Jitter error (maybe fixed) : 0 Retry sector count : 0 Damaged sector count : 0
Track 11 Filename : /Users/User/Music/iTunes/XLD files/11 - Concerto D-Dur Rv.453-2 Largo.flac Pre-gap length : 00:01:74
Track gain : 2.94 dB Peak : 0.362427 CRC32 hash (test run) : 9550FEDC CRC32 hash : 9550FEDC CRC32 hash (skip zero) : 1786C07E AccurateRip v1 signature : E713319F AccurateRip v2 signature : 71ABF019 ->Track not present in AccurateRip database. Statistics Read error : 0 Jitter error (maybe fixed) : 0 Retry sector count : 0 Damaged sector count : 0
Track 12 Filename : /Users/User/Music/iTunes/XLD files/12 - Concerto D-Dur Rv.453-3 Allegro.flac
Track gain : 0.48 dB Peak : 0.633087 CRC32 hash (test run) : 524287D1 CRC32 hash : 524287D1 CRC32 hash (skip zero) : B0EAC789 AccurateRip v1 signature : 5B13FDD2 AccurateRip v2 signature : 0671BADE ->Track not present in AccurateRip database. Statistics Read error : 0 Jitter error (maybe fixed) : 0 Retry sector count : 0 Damaged sector count : 0
Track 13 Filename : /Users/User/Music/iTunes/XLD files/13 - Concerto g-moll,op.11-6,RV.460-1 Allegro Non Molto.flac Pre-gap length : 00:08:49
Track gain : -0.83 dB Peak : 0.804169 CRC32 hash (test run) : 4D2ADA34 CRC32 hash : 4D2ADA34 CRC32 hash (skip zero) : DA88BBFD AccurateRip v1 signature : 07BD308C AccurateRip v2 signature : 592D80D7 ->Track not present in AccurateRip database. Statistics Read error : 0 Jitter error (maybe fixed) : 0 Retry sector count : 0 Damaged sector count : 0
Track 14 Filename : /Users/User/Music/iTunes/XLD files/14 - Concerto g-moll,op.11-6,RV.460-2 Largo.flac Pre-gap length : 00:01:36
Track gain : 3.48 dB Peak : 0.380920 CRC32 hash (test run) : 171E6567 CRC32 hash : 171E6567 CRC32 hash (skip zero) : EFCED63C AccurateRip v1 signature : 9BA43686 AccurateRip v2 signature : 1A693A43 ->Track not present in AccurateRip database. Statistics Read error : 0 Jitter error (maybe fixed) : 0 Retry sector count : 0 Damaged sector count : 0
Track 15 Filename : /Users/User/Music/iTunes/XLD files/15 - Concerto g-moll,op.11-6,RV.460-3 Allegro Non Molto.flac
Track gain : -0.66 dB Peak : 0.817535 CRC32 hash (test run) : D686C625 CRC32 hash : D686C625 CRC32 hash (skip zero) : 973ADE9B AccurateRip v1 signature : FE3479DF AccurateRip v2 signature : 4E713185 ->Track not present in AccurateRip database. Statistics Read error : 0 Jitter error (maybe fixed) : 0 Retry sector count : 0 Damaged sector count : 0
Track 16 Filename : /Users/User/Music/iTunes/XLD files/16 - Concerto C-Dur Rv.450-1 Allegro Molto.flac Pre-gap length : 00:07:49
Track gain : -0.04 dB Peak : 0.738892 CRC32 hash (test run) : DE9C68D3 CRC32 hash : DE9C68D3 CRC32 hash (skip zero) : BED3E41F AccurateRip v1 signature : 3C809267 AccurateRip v2 signature : 5360940E ->Track not present in AccurateRip database. Statistics Read error : 0 Jitter error (maybe fixed) : 0 Retry sector count : 0 Damaged sector count : 0
Track 17 Filename : /Users/User/Music/iTunes/XLD files/17 - Concerto C-Dur Rv.450-2 Larghetto.flac Pre-gap length : 00:02:49
Track gain : 1.90 dB Peak : 0.518921 CRC32 hash (test run) : DC25D741 CRC32 hash : DC25D741 CRC32 hash (skip zero) : D8315EDB AccurateRip v1 signature : 1FF47FAF AccurateRip v2 signature : 68100551 ->Track not present in AccurateRip database. Statistics Read error : 0 Jitter error (maybe fixed) : 0 Retry sector count : 0 Damaged sector count : 0
Track 18 Filename : /Users/User/Music/iTunes/XLD files/18 - Concerto C-Dur Rv.450-3 Allegro.flac
Track gain : -0.56 dB Peak : 0.806885 CRC32 hash (test run) : E56955EE CRC32 hash : E56955EE CRC32 hash (skip zero) : 7A2E0406 AccurateRip v1 signature : 3B71C990 AccurateRip v2 signature : 67CA6482 ->Track not present in AccurateRip database. Statistics Read error : 0 Jitter error (maybe fixed) : 0 Retry sector count : 0 Damaged sector count : 0
Track 19 Filename : /Users/User/Music/iTunes/XLD files/19 - Concerto A-Moll Rv.462-1 Allegro.flac Pre-gap length : 00:07:74
Track gain : -2.59 dB Peak : 0.857880 CRC32 hash (test run) : 33E3781C CRC32 hash : 33E3781C CRC32 hash (skip zero) : 9BF1F77F AccurateRip v1 signature : CBCBDDD6 AccurateRip v2 signature : 2401BAC1 ->Track not present in AccurateRip database. Statistics Read error : 0 Jitter error (maybe fixed) : 0 Retry sector count : 0 Damaged sector count : 0
Track 20 Filename : /Users/User/Music/iTunes/XLD files/20 - Concerto A-Moll Rv.462-2 Largo.flac Pre-gap length : 00:01:24
Track gain : -0.29 dB Peak : 0.796600 CRC32 hash (test run) : 3A3B16BE CRC32 hash : 3A3B16BE CRC32 hash (skip zero) : 7FE0D13D AccurateRip v1 signature : 44DFCD53 AccurateRip v2 signature : 50C5DD56 ->Track not present in AccurateRip database. Statistics Read error : 0 Jitter error (maybe fixed) : 0 Retry sector count : 0 Damaged sector count : 0
Track 21 Filename : /Users/User/Music/iTunes/XLD files/21 - Concerto A-Moll Rv462-3 Allegro.flac
Track gain : -1.38 dB Peak : 0.812378 CRC32 hash (test run) : 76ADC181 CRC32 hash : 76ADC181 CRC32 hash (skip zero) : 73081277 AccurateRip v1 signature : 248D8164 AccurateRip v2 signature : 7EFCA27D ->Track not present in AccurateRip database. Statistics Read error : 0 Jitter error (maybe fixed) : 0 Retry sector count : 0 Damaged sector count : 0
No errors occurred
End of status report
-----BEGIN XLD SIGNATURE-----CFbho0vOUcB3IDoqXDjBCuN9vrXUY.NKGz6ocX3tgucf0ZzTiFu7wRvkfGHfsIDj6KwcVzLnI.XxMIJJJmOsqt222ycD1GGvKJbHXQC-----END XLD SIGNATURE-----

CD 2

X Lossless Decoder version 20141129 (148.1)
XLD extraction logfile from 2015-11-16 19:24:45 +0200
Heinz Holliger: I Musici / Vivaldi Concerti Per Oboe
Used drive : PIONEER DVD-RW DVRTD11RS (revision 1.01)Media type : Pressed CD
Ripper mode : XLD Secure RipperDisable audio cache : OK for the drive with a cache less than 1375KiBMake use of C2 pointers : NORead offset correction : 6Max retry count : 20Gap status : Analyzed, Appended
TOC of the extracted CD Track | Start | Length | Start sector | End sector --------------------------------------------------------- 1 | 00:00:37 | 03:06:00 | 37 | 13986 2 | 03:06:37 | 02:38:50 | 13987 | 25886 3 | 05:45:12 | 02:45:25 | 25887 | 38286 4 | 08:30:37 | 02:48:25 | 38287 | 50911 5 | 11:18:62 | 03:21:25 | 50912 | 66011 6 | 14:40:12 | 03:10:25 | 66012 | 80286 7 | 17:50:37 | 03:54:50 | 80287 | 97886 8 | 21:45:12 | 03:19:50 | 97887 | 112861 9 | 25:04:62 | 02:58:50 | 112862 | 126261 10 | 28:03:37 | 02:46:00 | 126262 | 138711 11 | 30:49:37 | 02:59:50 | 138712 | 152186 12 | 33:49:12 | 03:04:50 | 152187 | 166036 13 | 36:53:62 | 05:37:25 | 166037 | 191336 14 | 42:31:12 | 02:50:25 | 191337 | 204111 15 | 45:21:37 | 02:45:50 | 204112 | 216536 16 | 48:07:12 | 03:53:50 | 216537 | 234061 17 | 52:00:62 | 03:58:25 | 234062 | 251936 18 | 55:59:12 | 02:19:00 | 251937 | 262361 19 | 58:18:12 | 02:47:00 | 262362 | 274886 20 | 61:05:12 | 01:53:25 | 274887 | 283386 21 | 62:58:37 | 02:15:00 | 283387 | 293511 22 | 65:13:37 | 03:14:50 | 293512 | 308111 23 | 68:28:12 | 02:48:25 | 308112 | 320736 24 | 71:16:37 | 01:55:50 | 320737 | 329411 25 | 73:12:12 | 02:16:25 | 329412 | 339636 26 | 75:28:37 | 02:06:25 | 339637 | 349111 27 | 77:34:62 | 02:03:50 | 349112 | 358386
AccurateRip Summary (DiscID: 0050abe6-0613da6d-7d12aa1b) Track 01 : OK (v1+v2, confidence 2/2) Track 02 : OK (v1+v2, confidence 2/2) Track 03 : OK (v1+v2, confidence 2/2) Track 04 : OK (v1+v2, confidence 2/2) Track 05 : OK (v1+v2, confidence 2/2) Track 06 : OK (v1+v2, confidence 2/2) Track 07 : OK (v1+v2, confidence 2/2) Track 08 : OK (v1+v2, confidence 2/2) Track 09 : OK (v1+v2, confidence 2/2) Track 10 : OK (v1+v2, confidence 2/2) Track 11 : OK (v1+v2, confidence 2/2) Track 12 : OK (v1+v2, confidence 2/2) Track 13 : OK (v1+v2, confidence 2/2) Track 14 : OK (v1+v2, confidence 2/2) Track 15 : OK (v1+v2, confidence 2/2) Track 16 : OK (v1+v2, confidence 2/2) Track 17 : OK (v1+v2, confidence 2/2) Track 18 : OK (v1+v2, confidence 2/2) Track 19 : OK (v1+v2, confidence 2/2) Track 20 : OK (v1+v2, confidence 2/2) Track 21 : OK (v1, confidence 1/2) Track 22 : OK (v1, confidence 1/2) Track 23 : OK (v1+v2, confidence 2/2) Track 24 : OK (v1+v2, confidence 2/2) Track 25 : OK (v1+v2, confidence 2/2) Track 26 : OK (v1+v2, confidence 2/2) Track 27 : OK (v1+v2, confidence 2/2) ->All tracks accurately ripped.
All Tracks Album gain : -1.15 dB Peak : 1.000000 Statistics Read error : 0 Jitter error (maybe fixed) : 0 Retry sector count : 0 Damaged sector count : 0
Track 01 Filename : /Users/User/Music/iTunes/XLD files/01 - Vivaldi: Oboe Concerto In D Minor, Op. 8/9, RV 454 - 1. Allegro.flac Pre-gap length : 00:02:37
Track gain : -2.57 dB Peak : 0.930756 CRC32 hash (test run) : 44998C23 CRC32 hash : 44998C23 CRC32 hash (skip zero) : 69B407F4 AccurateRip v1 signature : EC67F494 AccurateRip v2 signature : 6792DB08 ->Accurately ripped (v1+v2, confidence 1+1/2) Statistics Read error : 0 Jitter error (maybe fixed) : 0 Retry sector count : 0 Damaged sector count : 0
Track 02 Filename : /Users/User/Music/iTunes/XLD files/02 - Vivaldi: Oboe Concerto In D Minor, Op. 8/9, RV 454 - 2. Largo.flac Pre-gap length : 00:00:74
Track gain : 4.57 dB Peak : 0.406006 CRC32 hash (test run) : 655EAF4C CRC32 hash : 655EAF4C CRC32 hash (skip zero) : 8C821AC8 AccurateRip v1 signature : D1D03E84 AccurateRip v2 signature : 34EF5BF5 ->Accurately ripped (v1+v2, confidence 1+1/2) Statistics Read error : 0 Jitter error (maybe fixed) : 0 Retry sector count : 0 Damaged sector count : 0
Track 03 Filename : /Users/User/Music/iTunes/XLD files/03 - Vivaldi: Oboe Concerto In D Minor, Op. 8/9, RV 454 - 3. Allegro.flac
Track gain : -1.79 dB Peak : 0.849884 CRC32 hash (test run) : 25CC4EC0 CRC32 hash : 25CC4EC0 CRC32 hash (skip zero) : 96F87A9A AccurateRip v1 signature : 2EEA3368 AccurateRip v2 signature : 9C055B3B ->Accurately ripped (v1+v2, confidence 1+1/2) Statistics Read error : 0 Jitter error (maybe fixed) : 0 Retry sector count : 0 Damaged sector count : 0
Track 04 Filename : /Users/User/Music/iTunes/XLD files/04 - Concerto C-Dur Rv.451-1 Allegro Molto.flac Pre-gap length : 00:07:74
Track gain : -1.74 dB Peak : 0.848755 CRC32 hash (test run) : 83013AE7 CRC32 hash : 83013AE7 CRC32 hash (skip zero) : 850825EF AccurateRip v1 signature : C3C4071C AccurateRip v2 signature : FBA9FCB9 ->Accurately ripped (v1+v2, confidence 1+1/2) Statistics Read error : 0 Jitter error (maybe fixed) : 0 Retry sector count : 0 Damaged sector count : 0
Track 05 Filename : /Users/User/Music/iTunes/XLD files/05 - Concerto C-Dur Rv.451-2 Largo.flac Pre-gap length : 00:01:24
Track gain : 2.73 dB Peak : 0.490692 CRC32 hash (test run) : D0D8F1C3 CRC32 hash : D0D8F1C3 CRC32 hash (skip zero) : D619DCC0 AccurateRip v1 signature : 250AD69D AccurateRip v2 signature : E46B84BE ->Accurately ripped (v1+v2, confidence 1+1/2) Statistics Read error : 0 Jitter error (maybe fixed) : 0 Retry sector count : 0 Damaged sector count : 0
Track 06 Filename : /Users/User/Music/iTunes/XLD files/06 - Concerto C-Dur Rv.451-3 Allegro.flac Pre-gap length : 00:01:49
Track gain : 0.30 dB Peak : 0.628906 CRC32 hash (test run) : E20155AD CRC32 hash : E20155AD CRC32 hash (skip zero) : 3572137D AccurateRip v1 signature : A4F7CB7B AccurateRip v2 signature : 184C8A7A ->Accurately ripped (v1+v2, confidence 1+1/2) Statistics Read error : 0 Jitter error (maybe fixed) : 0 Retry sector count : 0 Damaged sector count : 0
Track 07 Filename : /Users/User/Music/iTunes/XLD files/07 - Concerto A-Moll Rv461-1 Allegro Non Molto.flac Pre-gap length : 00:06:74
Track gain : -0.36 dB Peak : 0.706055 CRC32 hash (test run) : E47BE1DA CRC32 hash : E47BE1DA CRC32 hash (skip zero) : F183E40C AccurateRip v1 signature : 6E6FA993 AccurateRip v2 signature : 4C7D0AC6 ->Accurately ripped (v1+v2, confidence 1+1/2) Statistics Read error : 0 Jitter error (maybe fixed) : 0 Retry sector count : 0 Damaged sector count : 0
Track 08 Filename : /Users/User/Music/iTunes/XLD files/08 - Concerto A-Moll Rv461-2 Larghetto.flac Pre-gap length : 00:03:49
Track gain : 2.27 dB Peak : 0.533051 CRC32 hash (test run) : 3A583080 CRC32 hash : 3A583080 CRC32 hash (skip zero) : 001B0AEB AccurateRip v1 signature : F5A9D2FB AccurateRip v2 signature : 791D73A5 ->Accurately ripped (v1+v2, confidence 1+1/2) Statistics Read error : 0 Jitter error (maybe fixed) : 0 Retry sector count : 0 Damaged sector count : 0
Track 09 Filename : /Users/User/Music/iTunes/XLD files/09 - Concerto A-Moll Rv461-3 Allegro.flac
Track gain : -2.30 dB Peak : 0.869720 CRC32 hash (test run) : 213C338D CRC32 hash : 213C338D CRC32 hash (skip zero) : FB84C3B7 AccurateRip v1 signature : A56A3D56 AccurateRip v2 signature : 5A42A52B ->Accurately ripped (v1+v2, confidence 1+1/2) Statistics Read error : 0 Jitter error (maybe fixed) : 0 Retry sector count : 0 Damaged sector count : 0
Track 10 Filename : /Users/User/Music/iTunes/XLD files/10 - Concerto C-Dur Rv.534-1 Allegro.flac Pre-gap length : 00:07:74
Track gain : -2.88 dB Peak : 0.878174 CRC32 hash (test run) : 0DD96497 CRC32 hash : 0DD96497 CRC32 hash (skip zero) : 55D5FD3F AccurateRip v1 signature : F8521960 AccurateRip v2 signature : 956B9103 ->Accurately ripped (v1+v2, confidence 1+1/2) Statistics Read error : 0 Jitter error (maybe fixed) : 0 Retry sector count : 0 Damaged sector count : 0
Track 11 Filename : /Users/User/Music/iTunes/XLD files/11 - Concerto C-Dur Rv.534-2 Largo.flac Pre-gap length : 00:01:74
Track gain : 2.51 dB Peak : 0.435669 CRC32 hash (test run) : 044025D6 CRC32 hash : 044025D6 CRC32 hash (skip zero) : 66093682 AccurateRip v1 signature : 84CAD72C AccurateRip v2 signature : 87B3F90F ->Accurately ripped (v1+v2, confidence 1+1/2) Statistics Read error : 0 Jitter error (maybe fixed) : 0 Retry sector count : 0 Damaged sector count : 0
Track 12 Filename : /Users/User/Music/iTunes/XLD files/12 - Concerto C-Dur Rv.534-3 Allegro.flac Pre-gap length : 00:01:49
Track gain : -0.92 dB Peak : 0.733826 CRC32 hash (test run) : DE11DDD1 CRC32 hash : DE11DDD1 CRC32 hash (skip zero) : 4C39B525 AccurateRip v1 signature : D17FF362 AccurateRip v2 signature : 7FA90E1B ->Accurately ripped (v1+v2, confidence 1+1/2) Statistics Read error : 0 Jitter error (maybe fixed) : 0 Retry sector count : 0 Damaged sector count : 0
Track 13 Filename : /Users/User/Music/iTunes/XLD files/13 - Concerto F-Dur Rv.457-1 Allegro Non Molto.flac Pre-gap length : 00:08:24
Track gain : -0.88 dB Peak : 0.764160 CRC32 hash (test run) : 89C7830E CRC32 hash : 89C7830E CRC32 hash (skip zero) : 26380274 AccurateRip v1 signature : 6DA8AD11 AccurateRip v2 signature : CB20096C ->Accurately ripped (v1+v2, confidence 1+1/2) Statistics Read error : 0 Jitter error (maybe fixed) : 0 Retry sector count : 0 Damaged sector count : 0
Track 14 Filename : /Users/User/Music/iTunes/XLD files/14 - Concerto F-Dur Rv.457-2 Andante.flac Pre-gap length : 00:01:49
Track gain : 4.53 dB Peak : 0.433868 CRC32 hash (test run) : 81609481 CRC32 hash : 81609481 CRC32 hash (skip zero) : 93EF4DCE AccurateRip v1 signature : A7240184 AccurateRip v2 signature : 6A0A0A55 ->Accurately ripped (v1+v2, confidence 1+1/2) Statistics Read error : 0 Jitter error (maybe fixed) : 0 Retry sector count : 0 Damaged sector count : 0
Track 15 Filename : /Users/User/Music/iTunes/XLD files/15 - Concerto F-Dur Rv.457-3 Allegro Molto.flac Pre-gap length : 00:00:74
Track gain : -0.82 dB Peak : 0.722748 CRC32 hash (test run) : 97BAB292 CRC32 hash : 97BAB292 CRC32 hash (skip zero) : E900D886 AccurateRip v1 signature : 9176F8D3 AccurateRip v2 signature : 695DA266 ->Accurately ripped (v1+v2, confidence 1+1/2) Statistics Read error : 0 Jitter error (maybe fixed) : 0 Retry sector count : 0 Damaged sector count : 0
Track 16 Filename : /Users/User/Music/iTunes/XLD files/16 - Concerto B-Dur Rv.548-1 Allegro.flac Pre-gap length : 00:06:49
Track gain : -2.03 dB Peak : 0.948059 CRC32 hash (test run) : 59E37168 CRC32 hash : 59E37168 CRC32 hash (skip zero) : A7171E98 AccurateRip v1 signature : DD0C1637 AccurateRip v2 signature : 3222E789 ->Accurately ripped (v1+v2, confidence 1+1/2) Statistics Read error : 0 Jitter error (maybe fixed) : 0 Retry sector count : 0 Damaged sector count : 0
Track 17 Filename : /Users/User/Music/iTunes/XLD files/17 - Concerto B-Dur Rv.548-2 Largo.flac Pre-gap length : 00:01:24
Track gain : 2.61 dB Peak : 0.505524 CRC32 hash (test run) : 7EFC64E6 CRC32 hash : 7EFC64E6 CRC32 hash (skip zero) : DB594D74 AccurateRip v1 signature : 30F3BA88 AccurateRip v2 signature : FFB73C10 ->Accurately ripped (v1+v2, confidence 1+1/2) Statistics Read error : 0 Jitter error (maybe fixed) : 0 Retry sector count : 0 Damaged sector count : 0
Track 18 Filename : /Users/User/Music/iTunes/XLD files/18 - Concerto B-Dur Rv.548-3 Allegro.flac
Track gain : -2.18 dB Peak : 1.000000 CRC32 hash (test run) : 8FAA31EE CRC32 hash : 8FAA31EE CRC32 hash (skip zero) : C6531B11 AccurateRip v1 signature : 12628000 AccurateRip v2 signature : BBE41A31 ->Accurately ripped (v1+v2, confidence 1+1/2) Statistics Read error : 0 Jitter error (maybe fixed) : 0 Retry sector count : 0 Damaged sector count : 0
Track 19 Filename : /Users/User/Music/iTunes/XLD files/19 - Vivaldi: Oboe Concerto In B Flat Minor, Op. 7/7, RV 464 - 1. Allegro.flac Pre-gap length : 00:07:49
Track gain : -2.93 dB Peak : 0.865906 CRC32 hash (test run) : C4AF9600 CRC32 hash : C4AF9600 CRC32 hash (skip zero) : C0998CCF AccurateRip v1 signature : 39E3964C AccurateRip v2 signature : D7495F23 ->Accurately ripped (v1+v2, confidence 1+1/2) Statistics Read error : 0 Jitter error (maybe fixed) : 0 Retry sector count : 0 Damaged sector count : 0
Track 20 Filename : /Users/User/Music/iTunes/XLD files/20 - Vivaldi: Oboe Concerto In B Flat Minor, Op. 7/7, RV 464 - 2. Largo.flac Pre-gap length : 00:01:49
Track gain : 1.65 dB Peak : 0.502380 CRC32 hash (test run) : EC67DE58 CRC32 hash : EC67DE58 CRC32 hash (skip zero) : C8E7567F AccurateRip v1 signature : 3ED03EDA AccurateRip v2 signature : 6D8FA2DB ->Accurately ripped (v1+v2, confidence 1+1/2) Statistics Read error : 0 Jitter error (maybe fixed) : 0 Retry sector count : 0 Damaged sector count : 0
Track 21 Filename : /Users/User/Music/iTunes/XLD files/21 - Vivaldi: Oboe Concerto In B Flat Minor, Op. 7/7, RV 464 - 3. Allegro.flac
Track gain : -3.87 dB Peak : 0.889038 CRC32 hash (test run) : 9D5BEC0D CRC32 hash : 9D5BEC0D CRC32 hash (skip zero) : 29E6CC5D AccurateRip v1 signature : FC335796 AccurateRip v2 signature : 0B349229 ->Accurately ripped (v1, confidence 1/2) Statistics Read error : 0 Jitter error (maybe fixed) : 0 Retry sector count : 0 Damaged sector count : 0
Track 22 Filename : /Users/User/Music/iTunes/XLD files/22 - Concerto F-Dur Rv.456-1 Largo.flac Pre-gap length : 00:06:74
Track gain : 0.24 dB Peak : 0.536743 CRC32 hash (test run) : 285367C2 CRC32 hash : 285367C2 CRC32 hash (skip zero) : 8600CF26 AccurateRip v1 signature : D3016AD8 AccurateRip v2 signature : A3374488 ->Accurately ripped (v1, confidence 1/2) Statistics Read error : 0 Jitter error (maybe fixed) : 0 Retry sector count : 0 Damaged sector count : 0
Track 23 Filename : /Users/User/Music/iTunes/XLD files/23 - Concerto F-Dur Rv.456-2 Allegro.flac Pre-gap length : 00:01:49
Track gain : -0.12 dB Peak : 0.659302 CRC32 hash (test run) : FDF3B57F CRC32 hash : FDF3B57F CRC32 hash (skip zero) : 10CEB452 AccurateRip v1 signature : 31C8ED79 AccurateRip v2 signature : 7BB81CC1 ->Accurately ripped (v1+v2, confidence 1+1/2) Statistics Read error : 0 Jitter error (maybe fixed) : 0 Retry sector count : 0 Damaged sector count : 0
Track 24 Filename : /Users/User/Music/iTunes/XLD files/24 - Concerto F-Dur Rv.456-3 Presto.flac
Track gain : -0.82 dB Peak : 0.697052 CRC32 hash (test run) : 035BEB9C CRC32 hash : 035BEB9C CRC32 hash (skip zero) : 90AF0CDB AccurateRip v1 signature : 06DD0961 AccurateRip v2 signature : 0FBEDC37 ->Accurately ripped (v1+v2, confidence 1+1/2) Statistics Read error : 0 Jitter error (maybe fixed) : 0 Retry sector count : 0 Damaged sector count : 0
Track 25 Filename : /Users/User/Music/iTunes/XLD files/25 - Concerto C-Dur Rv.455-1 Allegro.flac Pre-gap length : 00:06:49
Track gain : -1.36 dB Peak : 0.714020 CRC32 hash (test run) : 2543AAAE CRC32 hash : 2543AAAE CRC32 hash (skip zero) : 09113096 AccurateRip v1 signature : 36E4B200 AccurateRip v2 signature : 99AE9933 ->Accurately ripped (v1+v2, confidence 1+1/2) Statistics Read error : 0 Jitter error (maybe fixed) : 0 Retry sector count : 0 Damaged sector count : 0
Track 26 Filename : /Users/User/Music/iTunes/XLD files/26 - Vivaldi: Oboe Concerto In C, RV 452 - 2. Adagio.flac Pre-gap length : 00:00:74
Track gain : 3.44 dB Peak : 0.400665 CRC32 hash (test run) : 12725598 CRC32 hash : 12725598 CRC32 hash (skip zero) : A6AA7E96 AccurateRip v1 signature : ACD26653 AccurateRip v2 signature : 7298479C ->Accurately ripped (v1+v2, confidence 1+1/2) Statistics Read error : 0 Jitter error (maybe fixed) : 0 Retry sector count : 0 Damaged sector count : 0
Track 27 Filename : /Users/User/Music/iTunes/XLD files/27 - Concerto C-Dur Rv.455-3 Allegro.flac
Track gain : -0.41 dB Peak : 0.666626 CRC32 hash (test run) : 24001BD9 CRC32 hash : 24001BD9 CRC32 hash (skip zero) : C4682A12 AccurateRip v1 signature : 0422EC2F AccurateRip v2 signature : B6AF471E ->Accurately ripped (v1+v2, confidence 1+1/2) Statistics Read error : 0 Jitter error (maybe fixed) : 0 Retry sector count : 0 Damaged sector count : 0
No errors occurred
End of status report
-----BEGIN XLD SIGNATURE-----_zT8blOJocPnQqqtl52TpS1OHKpUkAyF7FPzmhfLtb2826GVeIjWP9Z.bbGU7uC8kV5sIEo.caifs9Ry8VLvBSYfTwbDIKmVWzV4vVG-----END XLD SIGNATURE-----

CD 3

X Lossless Decoder version 20141129 (148.1)
XLD extraction logfile from 2015-11-16 20:25:15 +0200
Heinz Holliger: I Musici / Vivaldi Concerti Per Oboe
Used drive : PIONEER DVD-RW DVRTD11RS (revision 1.01)Media type : Pressed CD
Ripper mode : XLD Secure RipperDisable audio cache : OK for the drive with a cache less than 1375KiBMake use of C2 pointers : NORead offset correction : 6Max retry count : 20Gap status : Analyzed, Appended
TOC of the extracted CD Track | Start | Length | Start sector | End sector --------------------------------------------------------- 1 | 00:00:00 | 03:06:00 | 0 | 13949 2 | 03:06:00 | 03:27:00 | 13950 | 29474 3 | 06:33:00 | 03:26:50 | 29475 | 44974 4 | 09:59:50 | 03:40:62 | 44975 | 61536 5 | 13:40:37 | 02:31:00 | 61537 | 72861 6 | 16:11:37 | 02:54:38 | 72862 | 85949 7 | 19:06:00 | 04:25:00 | 85950 | 105824 8 | 23:31:00 | 03:27:37 | 105825 | 121386 9 | 26:58:37 | 02:55:13 | 121387 | 134524 10 | 29:53:50 | 02:08:62 | 134525 | 144186 11 | 32:02:37 | 02:29:00 | 144187 | 155361 12 | 34:31:37 | 01:53:38 | 155362 | 163874 13 | 36:25:00 | 03:49:00 | 163875 | 181049 14 | 40:14:00 | 02:38:00 | 181050 | 192899 15 | 42:52:00 | 02:56:50 | 192900 | 206149 16 | 45:48:50 | 03:15:50 | 206150 | 220824 17 | 49:04:25 | 03:35:50 | 220825 | 236999 18 | 52:40:00 | 02:07:25 | 237000 | 246549 19 | 54:47:25 | 02:45:50 | 246550 | 258974 20 | 57:33:00 | 02:21:37 | 258975 | 269586 21 | 59:54:37 | 01:50:38 | 269587 | 277874 22 | 61:45:00 | 02:09:25 | 277875 | 287574 23 | 63:54:25 | 02:34:12 | 287575 | 299136 24 | 66:28:37 | 02:01:13 | 299137 | 308224 25 | 68:29:50 | 02:19:25 | 308225 | 318674 26 | 70:49:00 | 01:18:25 | 318675 | 324549 27 | 72:07:25 | 01:46:25 | 324550 | 332524 28 | 73:53:50 | 01:49:25 | 332525 | 340724
AccurateRip Summary Disc not found in AccurateRip DB.
All Tracks Album gain : -0.93 dB Peak : 0.999969 Statistics Read error : 0 Jitter error (maybe fixed) : 0 Retry sector count : 0 Damaged sector count : 0
Track 01 Filename : /Users/User/Music/iTunes/XLD files/01 - Concerto C-Dur Rv.449-1 Allegro.flac Pre-gap length : 00:02:00
Track gain : -1.66 dB Peak : 0.807648 CRC32 hash (test run) : A667034D CRC32 hash : A667034D CRC32 hash (skip zero) : 6A5B6407 AccurateRip v1 signature : 46F6DB44 AccurateRip v2 signature : 1835DDE1 ->Track not present in AccurateRip database. Statistics Read error : 0 Jitter error (maybe fixed) : 0 Retry sector count : 0 Damaged sector count : 0
Track 02 Filename : /Users/User/Music/iTunes/XLD files/02 - Concerto C-Dur Rv.449-2 Largo.flac Pre-gap length : 00:03:74
Track gain : 1.98 dB Peak : 0.422058 CRC32 hash (test run) : 7ADA16E8 CRC32 hash : 7ADA16E8 CRC32 hash (skip zero) : B9775C62 AccurateRip v1 signature : 76FD4D72 AccurateRip v2 signature : 4953A11C ->Track not present in AccurateRip database. Statistics Read error : 0 Jitter error (maybe fixed) : 0 Retry sector count : 0 Damaged sector count : 0
Track 03 Filename : /Users/User/Music/iTunes/XLD files/03 - Concerto C-Dur Rv.449-3 Allegro.flac
Track gain : -1.47 dB Peak : 0.798645 CRC32 hash (test run) : 573D39BC CRC32 hash : 573D39BC CRC32 hash (skip zero) : D100DC33 AccurateRip v1 signature : D56BBCF9 AccurateRip v2 signature : AE56F281 ->Track not present in AccurateRip database. Statistics Read error : 0 Jitter error (maybe fixed) : 0 Retry sector count : 0 Damaged sector count : 0
Track 04 Filename : /Users/User/Music/iTunes/XLD files/04 - Concerto F-Dur Rv.455-1 Allegro.flac Pre-gap length : 00:07:49
Track gain : -1.46 dB Peak : 0.708954 CRC32 hash (test run) : 6E247A4F CRC32 hash : 6E247A4F CRC32 hash (skip zero) : E66AA517 AccurateRip v1 signature : 465963D4 AccurateRip v2 signature : 02805C4F ->Track not present in AccurateRip database. Statistics Read error : 0 Jitter error (maybe fixed) : 0 Retry sector count : 0 Damaged sector count : 0
Track 05 Filename : /Users/User/Music/iTunes/XLD files/05 - Concerto F-Dur Rv.455-2 Grave.flac Pre-gap length : 00:01:36
Track gain : 1.86 dB Peak : 0.448883 CRC32 hash (test run) : 9919232E CRC32 hash : 9919232E CRC32 hash (skip zero) : B2CDD23A AccurateRip v1 signature : 18A8F754 AccurateRip v2 signature : 9EEE0822 ->Track not present in AccurateRip database. Statistics Read error : 0 Jitter error (maybe fixed) : 0 Retry sector count : 0 Damaged sector count : 0
Track 06 Filename : /Users/User/Music/iTunes/XLD files/06 - Concerto F-Dur Rv.455-3 Allegro.flac Pre-gap length : 00:01:36
Track gain : -0.96 dB Peak : 0.716095 CRC32 hash (test run) : F0CC5980 CRC32 hash : F0CC5980 CRC32 hash (skip zero) : EEBD38F9 AccurateRip v1 signature : 205DDE58 AccurateRip v2 signature : 18CD3C9C ->Track not present in AccurateRip database. Statistics Read error : 0 Jitter error (maybe fixed) : 0 Retry sector count : 0 Damaged sector count : 0
Track 07 Filename : /Users/User/Music/iTunes/XLD files/07 - Concerto C-Dur Rv.448-1 Allegro Non Molto.flac Pre-gap length : 00:05:74
Track gain : 0.22 dB Peak : 0.694122 CRC32 hash (test run) : 51327360 CRC32 hash : 51327360 CRC32 hash (skip zero) : 3C801E38 AccurateRip v1 signature : 6A43642C AccurateRip v2 signature : 74DDBF8E ->Track not present in AccurateRip database. Statistics Read error : 0 Jitter error (maybe fixed) : 0 Retry sector count : 0 Damaged sector count : 0
Track 08 Filename : /Users/User/Music/iTunes/XLD files/08 - Concerto C-Dur Rv.448-2 Larghetto.flac Pre-gap length : 00:01:74
Track gain : 1.18 dB Peak : 0.642151 CRC32 hash (test run) : A8031409 CRC32 hash : A8031409 CRC32 hash (skip zero) : 1C8869C3 AccurateRip v1 signature : D53639EA AccurateRip v2 signature : DB314185 ->Track not present in AccurateRip database. Statistics Read error : 0 Jitter error (maybe fixed) : 0 Retry sector count : 0 Damaged sector count : 0
Track 09 Filename : /Users/User/Music/iTunes/XLD files/09 - Concerto C-Dur Rv.448-3 Allegro.flac Pre-gap length : 00:01:36
Track gain : -1.22 dB Peak : 0.934540 CRC32 hash (test run) : BAB4C6EB CRC32 hash : BAB4C6EB CRC32 hash (skip zero) : 1F2C6F06 AccurateRip v1 signature : E8AD7298 AccurateRip v2 signature : B41C62B7 ->Track not present in AccurateRip database. Statistics Read error : 0 Jitter error (maybe fixed) : 0 Retry sector count : 0 Damaged sector count : 0
Track 10 Filename : /Users/User/Music/iTunes/XLD files/10 - Concerto F-Dur Rv.458-1 Allegro.flac Pre-gap length : 00:06:49
Track gain : -1.29 dB Peak : 0.809723 CRC32 hash (test run) : DA2A1ABD CRC32 hash : DA2A1ABD CRC32 hash (skip zero) : E6EC5235 AccurateRip v1 signature : 88587C17 AccurateRip v2 signature : 83DFFA63 ->Track not present in AccurateRip database. Statistics Read error : 0 Jitter error (maybe fixed) : 0 Retry sector count : 0 Damaged sector count : 0
Track 11 Filename : /Users/User/Music/iTunes/XLD files/11 - Concerto F-Dur Rv.458-2 Adagio.flac Pre-gap length : 00:01:36
Track gain : 0.01 dB Peak : 0.650848 CRC32 hash (test run) : 40B67E08 CRC32 hash : 40B67E08 CRC32 hash (skip zero) : 8087A72A AccurateRip v1 signature : B7D564D2 AccurateRip v2 signature : E482E161 ->Track not present in AccurateRip database. Statistics Read error : 0 Jitter error (maybe fixed) : 0 Retry sector count : 0 Damaged sector count : 0
Track 12 Filename : /Users/User/Music/iTunes/XLD files/12 - Concerto F-Dur Rv.458-3 Allegro.flac
Track gain : -1.75 dB Peak : 0.746399 CRC32 hash (test run) : BF8FF506 CRC32 hash : BF8FF506 CRC32 hash (skip zero) : 774794B9 AccurateRip v1 signature : B33BBAD1 AccurateRip v2 signature : E45FB3A1 ->Track not present in AccurateRip database. Statistics Read error : 0 Jitter error (maybe fixed) : 0 Retry sector count : 0 Damaged sector count : 0
Track 13 Filename : /Users/User/Music/iTunes/XLD files/13 - Concerto D-Dur Rv.535-1 Largo-Allegro.flac Pre-gap length : 00:06:74
Track gain : -0.70 dB Peak : 0.785950 CRC32 hash (test run) : 206B6ADF CRC32 hash : 206B6ADF CRC32 hash (skip zero) : 351E7804 AccurateRip v1 signature : AA9C0179 AccurateRip v2 signature : BC2F6631 ->Track not present in AccurateRip database. Statistics Read error : 0 Jitter error (maybe fixed) : 0 Retry sector count : 0 Damaged sector count : 0
Track 14 Filename : /Users/User/Music/iTunes/XLD files/14 - Concerto D-Dur Rv.535-2 Largo.flac Pre-gap length : 00:00:74
Track gain : -0.55 dB Peak : 0.728516 CRC32 hash (test run) : 64F06C5E CRC32 hash : 64F06C5E CRC32 hash (skip zero) : 52B1DE9B AccurateRip v1 signature : 6C7B40DC AccurateRip v2 signature : 86583E8A ->Track not present in AccurateRip database. Statistics Read error : 0 Jitter error (maybe fixed) : 0 Retry sector count : 0 Damaged sector count : 0
Track 15 Filename : /Users/User/Music/iTunes/XLD files/15 - Concerto D-Dur Rv.535-3 Allegro Molto.flac Pre-gap length : 00:00:74
Track gain : -0.75 dB Peak : 0.814392 CRC32 hash (test run) : 599A0061 CRC32 hash : 599A0061 CRC32 hash (skip zero) : C9D2B687 AccurateRip v1 signature : DF171C87 AccurateRip v2 signature : 4FCB72BD ->Track not present in AccurateRip database. Statistics Read error : 0 Jitter error (maybe fixed) : 0 Retry sector count : 0 Damaged sector count : 0
Track 16 Filename : /Users/User/Music/iTunes/XLD files/16 - Vivaldi: Oboe Concerto In C, RV 446 - 1. [Allegro].flac Pre-gap length : 00:07:49
Track gain : -2.77 dB Peak : 0.999969 CRC32 hash (test run) : B9860E3B CRC32 hash : B9860E3B CRC32 hash (skip zero) : B4698228 AccurateRip v1 signature : 4C036219 AccurateRip v2 signature : 628B1899 ->Track not present in AccurateRip database. Statistics Read error : 0 Jitter error (maybe fixed) : 0 Retry sector count : 0 Damaged sector count : 0
Track 17 Filename : /Users/User/Music/iTunes/XLD files/17 - Vivaldi: Oboe Concerto In C, RV 446 - 2. Adagio -.flac
Track gain : 2.02 dB Peak : 0.647888 CRC32 hash (test run) : 54C32467 CRC32 hash : 54C32467 CRC32 hash (skip zero) : A4549262 AccurateRip v1 signature : 661340CA AccurateRip v2 signature : F8637281 ->Track not present in AccurateRip database. Statistics Read error : 0 Jitter error (maybe fixed) : 0 Retry sector count : 0 Damaged sector count : 0
Track 18 Filename : /Users/User/Music/iTunes/XLD files/18 - Vivaldi: Oboe Concerto In C, RV 446 - 3. Allegro.flac
Track gain : -1.91 dB Peak : 0.754730 CRC32 hash (test run) : 863B0B2F CRC32 hash : 863B0B2F CRC32 hash (skip zero) : A909F807 AccurateRip v1 signature : 4BACC39F AccurateRip v2 signature : 789311B0 ->Track not present in AccurateRip database. Statistics Read error : 0 Jitter error (maybe fixed) : 0 Retry sector count : 0 Damaged sector count : 0
Track 19 Filename : /Users/User/Music/iTunes/XLD files/19 - Concerto A-Moll Rv.536-1 Allegro.flac Pre-gap length : 00:08:24
Track gain : -1.99 dB Peak : 0.821320 CRC32 hash (test run) : C386D347 CRC32 hash : C386D347 CRC32 hash (skip zero) : D7340599 AccurateRip v1 signature : A515C726 AccurateRip v2 signature : 7F6F01A7 ->Track not present in AccurateRip database. Statistics Read error : 0 Jitter error (maybe fixed) : 0 Retry sector count : 0 Damaged sector count : 0
Track 20 Filename : /Users/User/Music/iTunes/XLD files/20 - Concerto A-Moll Rv.536-2 Largo.flac Pre-gap length : 00:00:74
Track gain : -0.78 dB Peak : 0.779297 CRC32 hash (test run) : CA79F971 CRC32 hash : CA79F971 CRC32 hash (skip zero) : 0626ED28 AccurateRip v1 signature : 0CEDB8D3 AccurateRip v2 signature : 9C53D82E ->Track not present in AccurateRip database. Statistics Read error : 0 Jitter error (maybe fixed) : 0 Retry sector count : 0 Damaged sector count : 0
Track 21 Filename : /Users/User/Music/iTunes/XLD files/21 - Concerto A-Moll Rv.536-3 Allegro.flac Pre-gap length : 00:01:36
Track gain : -0.08 dB Peak : 0.578125 CRC32 hash (test run) : A3BB30F1 CRC32 hash : A3BB30F1 CRC32 hash (skip zero) : 18C6A84D AccurateRip v1 signature : 36F18AC8 AccurateRip v2 signature : 2BFC53EB ->Track not present in AccurateRip database. Statistics Read error : 0 Jitter error (maybe fixed) : 0 Retry sector count : 0 Damaged sector count : 0
Track 22 Filename : /Users/User/Music/iTunes/XLD files/22 - Vivaldi: Oboe Concerto In B Flat, Op. 7/1, RV 465 - 1. Allegro.flac Pre-gap length : 00:06:74
Track gain : -3.16 dB Peak : 0.842987 CRC32 hash (test run) : 6EBD91F1 CRC32 hash : 6EBD91F1 CRC32 hash (skip zero) : E35C7119 AccurateRip v1 signature : 3ADD1A53 AccurateRip v2 signature : C1ECD0B1 ->Track not present in AccurateRip database. Statistics Read error : 0 Jitter error (maybe fixed) : 0 Retry sector count : 0 Damaged sector count : 0
Track 23 Filename : /Users/User/Music/iTunes/XLD files/23 - Vivaldi: Oboe Concerto In B Flat, Op. 7/1, RV 465 - 2. Adagio.flac Pre-gap length : 00:01:24
Track gain : 0.27 dB Peak : 0.557587 CRC32 hash (test run) : 4400ED7F CRC32 hash : 4400ED7F CRC32 hash (skip zero) : 917FF0E8 AccurateRip v1 signature : E01E33CE AccurateRip v2 signature : 2AF8A085 ->Track not present in AccurateRip database. Statistics Read error : 0 Jitter error (maybe fixed) : 0 Retry sector count : 0 Damaged sector count : 0
Track 24 Filename : /Users/User/Music/iTunes/XLD files/24 - Concerto B-Dur Op.7 No.1 Rv.465-3 Allegro.flac
Track gain : -1.93 dB Peak : 0.814240 CRC32 hash (test run) : BC58D8A7 CRC32 hash : BC58D8A7 CRC32 hash (skip zero) : 04AB8CDE AccurateRip v1 signature : F04A97FA AccurateRip v2 signature : DF843D94 ->Track not present in AccurateRip database. Statistics Read error : 0 Jitter error (maybe fixed) : 0 Retry sector count : 0 Damaged sector count : 0
Track 25 Filename : /Users/User/Music/iTunes/XLD files/25 - Concerto F-Dur Rv.543-1 Allegro.flac Pre-gap length : 00:06:49
Track gain : -2.24 dB Peak : 0.838013 CRC32 hash (test run) : 16B9F0CA CRC32 hash : 16B9F0CA CRC32 hash (skip zero) : D279BB88 AccurateRip v1 signature : F4B9A301 AccurateRip v2 signature : DC194410 ->Track not present in AccurateRip database. Statistics Read error : 0 Jitter error (maybe fixed) : 0 Retry sector count : 0 Damaged sector count : 0
Track 26 Filename : /Users/User/Music/iTunes/XLD files/26 - Concerto F-Dur Rv.543-2 Allegro Alla Francese.flac Pre-gap length : 00:01:74
Track gain : 3.98 dB Peak : 0.447113 CRC32 hash (test run) : 527C7DA8 CRC32 hash : 527C7DA8 CRC32 hash (skip zero) : 3851B6AE AccurateRip v1 signature : 21D2887C AccurateRip v2 signature : 5A4319B7 ->Track not present in AccurateRip database. Statistics Read error : 0 Jitter error (maybe fixed) : 0 Retry sector count : 0 Damaged sector count : 0
Track 27 Filename : /Users/User/Music/iTunes/XLD files/27 - Concerto F-Dur Rv.543-3 Allegro.flac Pre-gap length : 00:01:24
Track gain : 0.66 dB Peak : 0.648224 CRC32 hash (test run) : DD8F8A4F CRC32 hash : DD8F8A4F CRC32 hash (skip zero) : 212F7294 AccurateRip v1 signature : B7A3BF07 AccurateRip v2 signature : C3CE1F01 ->Track not present in AccurateRip database. Statistics Read error : 0 Jitter error (maybe fixed) : 0 Retry sector count : 0 Damaged sector count : 0
Track 28 Filename : /Users/User/Music/iTunes/XLD files/28 - Concerto F-Dur Rv.543-4 Minuetto.flac
Track gain : 2.17 dB Peak : 0.459656 CRC32 hash (test run) : A6E87922 CRC32 hash : A6E87922 CRC32 hash (skip zero) : F733766B AccurateRip v1 signature : 5B98FA43 AccurateRip v2 signature : 0D4D7D30 ->Track not present in AccurateRip database. Statistics Read error : 0 Jitter error (maybe fixed) : 0 Retry sector count : 0 Damaged sector count : 0
No errors occurred
End of status report
-----BEGIN XLD SIGNATURE-----9GTcsoUrSLT97MQdkYOfNAI4MqpaPL4UloQluQhaIcV2rnkmIpN5U5Wy4wqY4HLnACkYzeuWJnvz8nG9Il.ZgN3c.zsL5F64wFO3UCO-----END XLD SIGNATURE-----

Содержание индексной карты (.CUE)CD 1

TITLE "Vivaldi Concerti Per Oboe"PERFORMER "Heinz Holliger: I Musici"REM GENRE "Classical"REM DATE "1993"REM DISCNUMBER 1REM TOTALDISCS 3REM DISCID 1C113315REM REPLAYGAIN_ALBUM_GAIN -0.08 dBREM REPLAYGAIN_ALBUM_PEAK 0.901550FILE "01 - Concerto A-Moll Rv.463-1 Allegro.flac" WAVE TRACK 01 AUDIO TITLE "Concerto A-Moll Rv.463-1 Allegro" PERFORMER "Heinz Holliger: I Musici" SONGWRITER "Antonio Vivaldi" ISRC NLA507500157 REM REPLAYGAIN_TRACK_GAIN -0.88 dB REM REPLAYGAIN_TRACK_PEAK 0.710327 INDEX 01 00:00:00 TRACK 02 AUDIO TITLE "Concerto A-Moll Rv.463-2 Largo" PERFORMER "Heinz Holliger: I Musici" SONGWRITER "Antonio Vivaldi" ISRC NLA507500158 REM REPLAYGAIN_TRACK_GAIN 4.04 dB REM REPLAYGAIN_TRACK_PEAK 0.413544 INDEX 00 03:23:01FILE "02 - Concerto A-Moll Rv.463-2 Largo.flac" WAVE INDEX 01 00:00:00FILE "03 - Concerto A-Moll Rv.463-3 Allegro.flac" WAVE TRACK 03 AUDIO TITLE "Concerto A-Moll Rv.463-3 Allegro" PERFORMER "Heinz Holliger: I Musici" SONGWRITER "Antonio Vivaldi" ISRC NLA507500159 REM REPLAYGAIN_TRACK_GAIN -2.11 dB REM REPLAYGAIN_TRACK_PEAK 0.901550 INDEX 01 00:00:00 TRACK 04 AUDIO TITLE "Concerto C-Dur Rv.447-1 Allegro Non Troppo" PERFORMER "Heinz Holliger: I Musici" SONGWRITER "Antonio Vivaldi" ISRC NLA507500160 REM REPLAYGAIN_TRACK_GAIN 0.41 dB REM REPLAYGAIN_TRACK_PEAK 0.783234 INDEX 00 03:08:26FILE "04 - Concerto C-Dur Rv.447-1 Allegro Non Troppo.flac" WAVE INDEX 01 00:00:00 TRACK 05 AUDIO TITLE "Concerto C-Dur Rv.447-2 Larghetto" PERFORMER "Heinz Holliger: I Musici" SONGWRITER "Antonio Vivaldi" ISRC NLA507500161 REM REPLAYGAIN_TRACK_GAIN 2.26 dB REM REPLAYGAIN_TRACK_PEAK 0.503143 INDEX 00 05:11:01FILE "05 - Concerto C-Dur Rv.447-2 Larghetto.flac" WAVE INDEX 01 00:00:00 TRACK 06 AUDIO TITLE "Concerto C-Dur Rv.447-3 Minuetto" PERFORMER "Heinz Holliger: I Musici" SONGWRITER "Antonio Vivaldi" ISRC NLA507500162 REM REPLAYGAIN_TRACK_GAIN -1.48 dB REM REPLAYGAIN_TRACK_PEAK 0.764435 INDEX 00 04:20:51FILE "06 - Concerto C-Dur Rv.447-3 Minuetto.flac" WAVE INDEX 01 00:00:00 TRACK 07 AUDIO TITLE "Vivaldi: Concerto For Oboe & Bassoon In G, RV 545 - 1. Andante" PERFORMER "Heinz Holliger: I Musici" SONGWRITER "Antonio Vivaldi" ISRC NLA507916407 REM REPLAYGAIN_TRACK_GAIN 0.20 dB REM REPLAYGAIN_TRACK_PEAK 0.722626 INDEX 00 05:09:01FILE "07 - Vivaldi: Concerto For Oboe & Bassoon In G, RV 545 - 1. Andante.flac" WAVE INDEX 01 00:00:00FILE "08 - Vivaldi: Concerto For Oboe & Bassoon In G, RV 545 - 2. Largo.flac" WAVE TRACK 08 AUDIO TITLE "Vivaldi: Concerto For Oboe & Bassoon In G, RV 545 - 2. Largo" PERFORMER "Heinz Holliger: I Musici" SONGWRITER "Antonio Vivaldi" ISRC NLA507916408 REM REPLAYGAIN_TRACK_GAIN 4.77 dB REM REPLAYGAIN_TRACK_PEAK 0.369049 INDEX 01 00:00:00FILE "09 - Vivaldi: Concerto For Oboe & Bassoon In G, RV 545 - 3. Allegro Molto.flac" WAVE TRACK 09 AUDIO TITLE "Vivaldi: Concerto For Oboe & Bassoon In G, RV 545 - 3. Allegro Molto" PERFORMER "Heinz Holliger: I Musici" SONGWRITER "Antonio Vivaldi" ISRC NLA507916409 REM REPLAYGAIN_TRACK_GAIN 1.92 dB REM REPLAYGAIN_TRACK_PEAK 0.646332 INDEX 01 00:00:00 TRACK 10 AUDIO TITLE "Concerto D-Dur Rv.453-1 Allegro" PERFORMER "Heinz Holliger: I Musici" SONGWRITER "Antonio Vivaldi" ISRC NLA507536310 REM REPLAYGAIN_TRACK_GAIN -0.42 dB REM REPLAYGAIN_TRACK_PEAK 0.792389 INDEX 00 03:36:01FILE "10 - Concerto D-Dur Rv.453-1 Allegro.flac" WAVE INDEX 01 00:00:00 TRACK 11 AUDIO TITLE "Concerto D-Dur Rv.453-2 Largo" PERFORMER "Heinz Holliger: I Musici" SONGWRITER "Antonio Vivaldi" ISRC NLA507536311 REM REPLAYGAIN_TRACK_GAIN 2.94 dB REM REPLAYGAIN_TRACK_PEAK 0.362427 INDEX 00 03:10:39FILE "11 - Concerto D-Dur Rv.453-2 Largo.flac" WAVE INDEX 01 00:00:00FILE "12 - Concerto D-Dur Rv.453-3 Allegro.flac" WAVE TRACK 12 AUDIO TITLE "Concerto D-Dur Rv.453-3 Allegro" PERFORMER "Heinz Holliger: I Musici" SONGWRITER "Antonio Vivaldi" ISRC NLA507536312 REM REPLAYGAIN_TRACK_GAIN 0.48 dB REM REPLAYGAIN_TRACK_PEAK 0.633087 INDEX 01 00:00:00 TRACK 13 AUDIO TITLE "Concerto g-moll,op.11-6,RV.460-1 Allegro Non Molto" PERFORMER "Heinz Holliger: I Musici" SONGWRITER "Antonio Vivaldi" ISRC NLA507500163 REM REPLAYGAIN_TRACK_GAIN -0.83 dB REM REPLAYGAIN_TRACK_PEAK 0.804169 INDEX 00 03:16:26FILE "13 - Concerto g-moll,op.11-6,RV.460-1 Allegro Non Molto.flac" WAVE INDEX 01 00:00:00 TRACK 14 AUDIO TITLE "Concerto g-moll,op.11-6,RV.460-2 Largo" PERFORMER "Heinz Holliger: I Musici" SONGWRITER "Antonio Vivaldi" ISRC NLA507500164 REM REPLAYGAIN_TRACK_GAIN 3.48 dB REM REPLAYGAIN_TRACK_PEAK 0.380920 INDEX 00 04:03:26FILE "14 - Concerto g-moll,op.11-6,RV.460-2 Largo.flac" WAVE INDEX 01 00:00:00FILE "15 - Concerto g-moll,op.11-6,RV.460-3 Allegro Non Molto.flac" WAVE TRACK 15 AUDIO TITLE "Concerto g-moll,op.11-6,RV.460-3 Allegro Non Molto" PERFORMER "Heinz Holliger: I Musici" SONGWRITER "Antonio Vivaldi" ISRC NLA507500165 REM REPLAYGAIN_TRACK_GAIN -0.66 dB REM REPLAYGAIN_TRACK_PEAK 0.817535 INDEX 01 00:00:00 TRACK 16 AUDIO TITLE "Concerto C-Dur Rv.450-1 Allegro Molto" PERFORMER "Heinz Holliger: I Musici" SONGWRITER "Antonio Vivaldi" ISRC NLA507500166 REM REPLAYGAIN_TRACK_GAIN -0.04 dB REM REPLAYGAIN_TRACK_PEAK 0.738892 INDEX 00 03:27:51FILE "16 - Concerto C-Dur Rv.450-1 Allegro Molto.flac" WAVE INDEX 01 00:00:00 TRACK 17 AUDIO TITLE "Concerto C-Dur Rv.450-2 Larghetto" PERFORMER "Heinz Holliger: I Musici" SONGWRITER "Antonio Vivaldi" ISRC NLA507500167 REM REPLAYGAIN_TRACK_GAIN 1.90 dB REM REPLAYGAIN_TRACK_PEAK 0.518921 INDEX 00 04:19:26FILE "17 - Concerto C-Dur Rv.450-2 Larghetto.flac" WAVE INDEX 01 00:00:00FILE "18 - Concerto C-Dur Rv.450-3 Allegro.flac" WAVE TRACK 18 AUDIO TITLE "Concerto C-Dur Rv.450-3 Allegro" PERFORMER "Heinz Holliger: I Musici" SONGWRITER "Antonio Vivaldi" ISRC NLA507500168 REM REPLAYGAIN_TRACK_GAIN -0.56 dB REM REPLAYGAIN_TRACK_PEAK 0.806885 INDEX 01 00:00:00 TRACK 19 AUDIO TITLE "Concerto A-Moll Rv.462-1 Allegro" PERFORMER "Heinz Holliger: I Musici" SONGWRITER "Antonio Vivaldi" ISRC NLA507823613 REM REPLAYGAIN_TRACK_GAIN -2.59 dB REM REPLAYGAIN_TRACK_PEAK 0.857880 INDEX 00 02:57:39FILE "19 - Concerto A-Moll Rv.462-1 Allegro.flac" WAVE INDEX 01 00:00:00 TRACK 20 AUDIO TITLE "Concerto A-Moll Rv.462-2 Largo" PERFORMER "Heinz Holliger: I Musici" SONGWRITER "Antonio Vivaldi" ISRC NLA507823614 REM REPLAYGAIN_TRACK_GAIN -0.29 dB REM REPLAYGAIN_TRACK_PEAK 0.796600 INDEX 00 01:58:01FILE "20 - Concerto A-Moll Rv.462-2 Largo.flac" WAVE INDEX 01 00:00:00FILE "21 - Concerto A-Moll Rv462-3 Allegro.flac" WAVE TRACK 21 AUDIO TITLE "Concerto A-Moll Rv462-3 Allegro" PERFORMER "Heinz Holliger: I Musici" SONGWRITER "Antonio Vivaldi" ISRC NLA507823615 REM REPLAYGAIN_TRACK_GAIN -1.38 dB REM REPLAYGAIN_TRACK_PEAK 0.812378 INDEX 01 00:00:00

CD 2

TITLE "Vivaldi Concerti Per Oboe"PERFORMER "Heinz Holliger: I Musici"REM GENRE "Classical"REM DATE "1993"REM DISCNUMBER 2REM TOTALDISCS 3REM DISCID 7D12AA1BREM REPLAYGAIN_ALBUM_GAIN -1.15 dBREM REPLAYGAIN_ALBUM_PEAK 1.000000FILE "01 - Vivaldi: Oboe Concerto In D Minor, Op. 8/9, RV 454 - 1. Allegro.flac" WAVE TRACK 01 AUDIO TITLE "Vivaldi: Oboe Concerto In D Minor, Op. 8/9, RV 454 - 1. Allegro" PERFORMER "Heinz Holliger: I Musici" SONGWRITER "Antonio Vivaldi" ISRC NLA507916407 REM REPLAYGAIN_TRACK_GAIN -2.57 dB REM REPLAYGAIN_TRACK_PEAK 0.930756 INDEX 00 00:00:00 INDEX 01 00:00:37 TRACK 02 AUDIO TITLE "Vivaldi: Oboe Concerto In D Minor, Op. 8/9, RV 454 - 2. Largo" PERFORMER "Heinz Holliger: I Musici" SONGWRITER "Antonio Vivaldi" ISRC NLA507916408 REM REPLAYGAIN_TRACK_GAIN 4.57 dB REM REPLAYGAIN_TRACK_PEAK 0.406006 INDEX 00 03:05:38FILE "02 - Vivaldi: Oboe Concerto In D Minor, Op. 8/9, RV 454 - 2. Largo.flac" WAVE INDEX 01 00:00:00FILE "03 - Vivaldi: Oboe Concerto In D Minor, Op. 8/9, RV 454 - 3. Allegro.flac" WAVE TRACK 03 AUDIO TITLE "Vivaldi: Oboe Concerto In D Minor, Op. 8/9, RV 454 - 3. Allegro" PERFORMER "Heinz Holliger: I Musici" SONGWRITER "Antonio Vivaldi" ISRC NLA507916409 REM REPLAYGAIN_TRACK_GAIN -1.79 dB REM REPLAYGAIN_TRACK_PEAK 0.849884 INDEX 01 00:00:00 TRACK 04 AUDIO TITLE "Concerto C-Dur Rv.451-1 Allegro Molto" PERFORMER "Heinz Holliger: I Musici" SONGWRITER "Antonio Vivaldi" ISRC NLA507536301 REM REPLAYGAIN_TRACK_GAIN -1.74 dB REM REPLAYGAIN_TRACK_PEAK 0.848755 INDEX 00 02:37:26FILE "04 - Concerto C-Dur Rv.451-1 Allegro Molto.flac" WAVE INDEX 01 00:00:00 TRACK 05 AUDIO TITLE "Concerto C-Dur Rv.451-2 Largo" PERFORMER "Heinz Holliger: I Musici" SONGWRITER "Antonio Vivaldi" ISRC NLA507536302 REM REPLAYGAIN_TRACK_GAIN 2.73 dB REM REPLAYGAIN_TRACK_PEAK 0.490692 INDEX 00 02:47:01FILE "05 - Concerto C-Dur Rv.451-2 Largo.flac" WAVE INDEX 01 00:00:00 TRACK 06 AUDIO TITLE "Concerto C-Dur Rv.451-3 Allegro" PERFORMER "Heinz Holliger: I Musici" SONGWRITER "Antonio Vivaldi" ISRC NLA507536303 REM REPLAYGAIN_TRACK_GAIN 0.30 dB REM REPLAYGAIN_TRACK_PEAK 0.628906 INDEX 00 03:19:51FILE "06 - Concerto C-Dur Rv.451-3 Allegro.flac" WAVE INDEX 01 00:00:00 TRACK 07 AUDIO TITLE "Concerto A-Moll Rv461-1 Allegro Non Molto" PERFORMER "Heinz Holliger: I Musici" SONGWRITER "Antonio Vivaldi" ISRC NLA507536307 REM REPLAYGAIN_TRACK_GAIN -0.36 dB REM REPLAYGAIN_TRACK_PEAK 0.706055 INDEX 00 03:03:26FILE "07 - Concerto A-Moll Rv461-1 Allegro Non Molto.flac" WAVE INDEX 01 00:00:00 TRACK 08 AUDIO TITLE "Concerto A-Moll Rv461-2 Larghetto" PERFORMER "Heinz Holliger: I Musici" SONGWRITER "Antonio Vivaldi" ISRC NLA507536308 REM REPLAYGAIN_TRACK_GAIN 2.27 dB REM REPLAYGAIN_TRACK_PEAK 0.533051 INDEX 00 03:51:01FILE "08 - Concerto A-Moll Rv461-2 Larghetto.flac" WAVE INDEX 01 00:00:00FILE "09 - Concerto A-Moll Rv461-3 Allegro.flac" WAVE TRACK 09 AUDIO TITLE "Concerto A-Moll Rv461-3 Allegro" PERFORMER "Heinz Holliger: I Musici" SONGWRITER "Antonio Vivaldi" ISRC NLA507536309 REM REPLAYGAIN_TRACK_GAIN -2.30 dB REM REPLAYGAIN_TRACK_PEAK 0.869720 INDEX 01 00:00:00 TRACK 10 AUDIO TITLE "Concerto C-Dur Rv.534-1 Allegro" PERFORMER "Heinz Holliger: I Musici" SONGWRITER "Antonio Vivaldi" ISRC NLA507823601 REM REPLAYGAIN_TRACK_GAIN -2.88 dB REM REPLAYGAIN_TRACK_PEAK 0.878174 INDEX 00 02:50:51FILE "10 - Concerto C-Dur Rv.534-1 Allegro.flac" WAVE INDEX 01 00:00:00 TRACK 11 AUDIO TITLE "Concerto C-Dur Rv.534-2 Largo" PERFORMER "Heinz Holliger: I Musici" SONGWRITER "Antonio Vivaldi" ISRC NLA507823602 REM REPLAYGAIN_TRACK_GAIN 2.51 dB REM REPLAYGAIN_TRACK_PEAK 0.435669 INDEX 00 02:44:01FILE "11 - Concerto C-Dur Rv.534-2 Largo.flac" WAVE INDEX 01 00:00:00 TRACK 12 AUDIO TITLE "Concerto C-Dur Rv.534-3 Allegro" PERFORMER "Heinz Holliger: I Musici" SONGWRITER "Antonio Vivaldi" ISRC NLA507823603 REM REPLAYGAIN_TRACK_GAIN -0.92 dB REM REPLAYGAIN_TRACK_PEAK 0.733826 INDEX 00 02:58:01FILE "12 - Concerto C-Dur Rv.534-3 Allegro.flac" WAVE INDEX 01 00:00:00 TRACK 13 AUDIO TITLE "Concerto F-Dur Rv.457-1 Allegro Non Molto" PERFORMER "Heinz Holliger: I Musici" SONGWRITER "Antonio Vivaldi" ISRC NLA507536304 REM REPLAYGAIN_TRACK_GAIN -0.88 dB REM REPLAYGAIN_TRACK_PEAK 0.764160 INDEX 00 02:56:26FILE "13 - Concerto F-Dur Rv.457-1 Allegro Non Molto.flac" WAVE INDEX 01 00:00:00 TRACK 14 AUDIO TITLE "Concerto F-Dur Rv.457-2 Andante" PERFORMER "Heinz Holliger: I Musici" SONGWRITER "Antonio Vivaldi" ISRC NLA507536305 REM REPLAYGAIN_TRACK_GAIN 4.53 dB REM REPLAYGAIN_TRACK_PEAK 0.433868 INDEX 00 05:35:51FILE "14 - Concerto F-Dur Rv.457-2 Andante.flac" WAVE INDEX 01 00:00:00 TRACK 15 AUDIO TITLE "Concerto F-Dur Rv.457-3 Allegro Molto" PERFORMER "Heinz Holliger: I Musici" SONGWRITER "Antonio Vivaldi" ISRC NLA507536306 REM REPLAYGAIN_TRACK_GAIN -0.82 dB REM REPLAYGAIN_TRACK_PEAK 0.722748 INDEX 00 02:49:26FILE "15 - Concerto F-Dur Rv.457-3 Allegro Molto.flac" WAVE INDEX 01 00:00:00 TRACK 16 AUDIO TITLE "Concerto B-Dur Rv.548-1 Allegro" PERFORMER "Heinz Holliger: I Musici" SONGWRITER "Antonio Vivaldi" ISRC NLA507804204 REM REPLAYGAIN_TRACK_GAIN -2.03 dB REM REPLAYGAIN_TRACK_PEAK 0.948059 INDEX 00 02:39:01FILE "16 - Concerto B-Dur Rv.548-1 Allegro.flac" WAVE INDEX 01 00:00:00 TRACK 17 AUDIO TITLE "Concerto B-Dur Rv.548-2 Largo" PERFORMER "Heinz Holliger: I Musici" SONGWRITER "Antonio Vivaldi" ISRC NLA507804205 REM REPLAYGAIN_TRACK_GAIN 2.61 dB REM REPLAYGAIN_TRACK_PEAK 0.505524 INDEX 00 03:52:26FILE "17 - Concerto B-Dur Rv.548-2 Largo.flac" WAVE INDEX 01 00:00:00FILE "18 - Concerto B-Dur Rv.548-3 Allegro.flac" WAVE TRACK 18 AUDIO TITLE "Concerto B-Dur Rv.548-3 Allegro" PERFORMER "Heinz Holliger: I Musici" SONGWRITER "Antonio Vivaldi" ISRC NLA507804206 REM REPLAYGAIN_TRACK_GAIN -2.18 dB REM REPLAYGAIN_TRACK_PEAK 1.000000 INDEX 01 00:00:00 TRACK 19 AUDIO TITLE "Vivaldi: Oboe Concerto In B Flat Minor, Op. 7/7, RV 464 - 1. Allegro" PERFORMER "Heinz Holliger: I Musici" SONGWRITER "Antonio Vivaldi" ISRC NLA507500139 REM REPLAYGAIN_TRACK_GAIN -2.93 dB REM REPLAYGAIN_TRACK_PEAK 0.865906 INDEX 00 02:11:26FILE "19 - Vivaldi: Oboe Concerto In B Flat Minor, Op. 7/7, RV 464 - 1. Allegro.flac" WAVE INDEX 01 00:00:00 TRACK 20 AUDIO TITLE "Vivaldi: Oboe Concerto In B Flat Minor, Op. 7/7, RV 464 - 2. Largo" PERFORMER "Heinz Holliger: I Musici" SONGWRITER "Antonio Vivaldi" ISRC NLA507500140 REM REPLAYGAIN_TRACK_GAIN 1.65 dB REM REPLAYGAIN_TRACK_PEAK 0.502380 INDEX 00 02:45:26FILE "20 - Vivaldi: Oboe Concerto In B Flat Minor, Op. 7/7, RV 464 - 2. Largo.flac" WAVE INDEX 01 00:00:00FILE "21 - Vivaldi: Oboe Concerto In B Flat Minor, Op. 7/7, RV 464 - 3. Allegro.flac" WAVE TRACK 21 AUDIO TITLE "Vivaldi: Oboe Concerto In B Flat Minor, Op. 7/7, RV 464 - 3. Allegro" PERFORMER "Heinz Holliger: I Musici" SONGWRITER "Antonio Vivaldi" ISRC NLA507500141 REM REPLAYGAIN_TRACK_GAIN -3.87 dB REM REPLAYGAIN_TRACK_PEAK 0.889038 INDEX 01 00:00:00 TRACK 22 AUDIO TITLE "Concerto F-Dur Rv.456-1 Largo" PERFORMER "Heinz Holliger: I Musici" SONGWRITER "Antonio Vivaldi" ISRC NLA507804210 REM REPLAYGAIN_TRACK_GAIN 0.24 dB REM REPLAYGAIN_TRACK_PEAK 0.536743 INDEX 00 02:08:01FILE "22 - Concerto F-Dur Rv.456-1 Largo.flac" WAVE INDEX 01 00:00:00 TRACK 23 AUDIO TITLE "Concerto F-Dur Rv.456-2 Allegro" PERFORMER "Heinz Holliger: I Musici" SONGWRITER "Antonio Vivaldi" ISRC NLA507804211 REM REPLAYGAIN_TRACK_GAIN -0.12 dB REM REPLAYGAIN_TRACK_PEAK 0.659302 INDEX 00 03:13:01FILE "23 - Concerto F-Dur Rv.456-2 Allegro.flac" WAVE INDEX 01 00:00:00FILE "24 - Concerto F-Dur Rv.456-3 Presto.flac" WAVE TRACK 24 AUDIO TITLE "Concerto F-Dur Rv.456-3 Presto" PERFORMER "Heinz Holliger: I Musici" SONGWRITER "Antonio Vivaldi" ISRC NLA507804212 REM REPLAYGAIN_TRACK_GAIN -0.82 dB REM REPLAYGAIN_TRACK_PEAK 0.697052 INDEX 01 00:00:00 TRACK 25 AUDIO TITLE "Concerto C-Dur Rv.455-1 Allegro" PERFORMER "Heinz Holliger: I Musici" SONGWRITER "Antonio Vivaldi" ISRC NLA507916401 REM REPLAYGAIN_TRACK_GAIN -1.36 dB REM REPLAYGAIN_TRACK_PEAK 0.714020 INDEX 00 01:49:01FILE "25 - Concerto C-Dur Rv.455-1 Allegro.flac" WAVE INDEX 01 00:00:00 TRACK 26 AUDIO TITLE "Vivaldi: Oboe Concerto In C, RV 452 - 2. Adagio" PERFORMER "Heinz Holliger: I Musici" SONGWRITER "Antonio Vivaldi" ISRC NLA507916402 REM REPLAYGAIN_TRACK_GAIN 3.44 dB REM REPLAYGAIN_TRACK_PEAK 0.400665 INDEX 00 02:15:26FILE "26 - Vivaldi: Oboe Concerto In C, RV 452 - 2. Adagio.flac" WAVE INDEX 01 00:00:00FILE "27 - Concerto C-Dur Rv.455-3 Allegro.flac" WAVE TRACK 27 AUDIO TITLE "Concerto C-Dur Rv.455-3 Allegro" PERFORMER "Heinz Holliger: I Musici" SONGWRITER "Antonio Vivaldi" ISRC NLA507916403 REM REPLAYGAIN_TRACK_GAIN -0.41 dB REM REPLAYGAIN_TRACK_PEAK 0.666626 INDEX 01 00:00:00

CD 3

TITLE "Vivaldi Concerti Per Oboe"PERFORMER "Heinz Holliger: I Musici"REM GENRE "Classical"REM DISCNUMBER 3REM TOTALDISCS 3REM DISCID AA11BF1CREM REPLAYGAIN_ALBUM_GAIN -0.93 dBREM REPLAYGAIN_ALBUM_PEAK 0.999969FILE "01 - Concerto C-Dur Rv.449-1 Allegro.flac" WAVE TRACK 01 AUDIO TITLE "Concerto C-Dur Rv.449-1 Allegro" PERFORMER "Heinz Holliger: I Musici" SONGWRITER "Antonio Vivaldi" ISRC NLA507804201 REM REPLAYGAIN_TRACK_GAIN -1.66 dB REM REPLAYGAIN_TRACK_PEAK 0.807648 INDEX 01 00:00:00 TRACK 02 AUDIO TITLE "Concerto C-Dur Rv.449-2 Largo" PERFORMER "Heinz Holliger: I Musici" SONGWRITER "Antonio Vivaldi" ISRC NLA507804202 REM REPLAYGAIN_TRACK_GAIN 1.98 dB REM REPLAYGAIN_TRACK_PEAK 0.422058 INDEX 00 03:02:01FILE "02 - Concerto C-Dur Rv.449-2 Largo.flac" WAVE INDEX 01 00:00:00FILE "03 - Concerto C-Dur Rv.449-3 Allegro.flac" WAVE TRACK 03 AUDIO TITLE "Concerto C-Dur Rv.449-3 Allegro" PERFORMER "Heinz Holliger: I Musici" SONGWRITER "Antonio Vivaldi" ISRC NLA507804203 REM REPLAYGAIN_TRACK_GAIN -1.47 dB REM REPLAYGAIN_TRACK_PEAK 0.798645 INDEX 01 00:00:00 TRACK 04 AUDIO TITLE "Concerto F-Dur Rv.455-1 Allegro" PERFORMER "Heinz Holliger: I Musici" SONGWRITER "Antonio Vivaldi" ISRC NLA507536313 REM REPLAYGAIN_TRACK_GAIN -1.46 dB REM REPLAYGAIN_TRACK_PEAK 0.708954 INDEX 00 03:19:01FILE "04 - Concerto F-Dur Rv.455-1 Allegro.flac" WAVE INDEX 01 00:00:00 TRACK 05 AUDIO TITLE "Concerto F-Dur Rv.455-2 Grave" PERFORMER "Heinz Holliger: I Musici" SONGWRITER "Antonio Vivaldi" ISRC NLA507536314 REM REPLAYGAIN_TRACK_GAIN 1.86 dB REM REPLAYGAIN_TRACK_PEAK 0.448883 INDEX 00 03:39:26FILE "05 - Concerto F-Dur Rv.455-2 Grave.flac" WAVE INDEX 01 00:00:00 TRACK 06 AUDIO TITLE "Concerto F-Dur Rv.455-3 Allegro" PERFORMER "Heinz Holliger: I Musici" SONGWRITER "Antonio Vivaldi" ISRC NLA507536315 REM REPLAYGAIN_TRACK_GAIN -0.96 dB REM REPLAYGAIN_TRACK_PEAK 0.716095 INDEX 00 02:29:39FILE "06 - Concerto F-Dur Rv.455-3 Allegro.flac" WAVE INDEX 01 00:00:00 TRACK 07 AUDIO TITLE "Concerto C-Dur Rv.448-1 Allegro Non Molto" PERFORMER "Heinz Holliger: I Musici" ISRC NLA507804207 REM REPLAYGAIN_TRACK_GAIN 0.22 dB REM REPLAYGAIN_TRACK_PEAK 0.694122 INDEX 00 02:48:39FILE "07 - Concerto C-Dur Rv.448-1 Allegro Non Molto.flac" WAVE INDEX 01 00:00:00 TRACK 08 AUDIO TITLE "Concerto C-Dur Rv.448-2 Larghetto" PERFORMER "Heinz Holliger: I Musici" SONGWRITER "Antonio Vivaldi" ISRC NLA507804208 REM REPLAYGAIN_TRACK_GAIN 1.18 dB REM REPLAYGAIN_TRACK_PEAK 0.642151 INDEX 00 04:23:01FILE "08 - Concerto C-Dur Rv.448-2 Larghetto.flac" WAVE INDEX 01 00:00:00 TRACK 09 AUDIO TITLE "Concerto C-Dur Rv.448-3 Allegro" PERFORMER "Heinz Holliger: I Musici" SONGWRITER "Antonio Vivaldi" ISRC NLA507804209 REM REPLAYGAIN_TRACK_GAIN -1.22 dB REM REPLAYGAIN_TRACK_PEAK 0.934540 INDEX 00 03:26:01FILE "09 - Concerto C-Dur Rv.448-3 Allegro.flac" WAVE INDEX 01 00:00:00 TRACK 10 AUDIO TITLE "Concerto F-Dur Rv.458-1 Allegro" PERFORMER "Heinz Holliger: I Musici" SONGWRITER "Antonio Vivaldi" ISRC NLA507823607 REM REPLAYGAIN_TRACK_GAIN -1.29 dB REM REPLAYGAIN_TRACK_PEAK 0.809723 INDEX 00 02:48:39FILE "10 - Concerto F-Dur Rv.458-1 Allegro.flac" WAVE INDEX 01 00:00:00 TRACK 11 AUDIO TITLE "Concerto F-Dur Rv.458-2 Adagio" PERFORMER "Heinz Holliger: I Musici" SONGWRITER "Antonio Vivaldi" ISRC NLA507823608 REM REPLAYGAIN_TRACK_GAIN 0.01 dB REM REPLAYGAIN_TRACK_PEAK 0.650848 INDEX 00 02:07:26FILE "11 - Concerto F-Dur Rv.458-2 Adagio.flac" WAVE INDEX 01 00:00:00FILE "12 - Concerto F-Dur Rv.458-3 Allegro.flac" WAVE TRACK 12 AUDIO TITLE "Concerto F-Dur Rv.458-3 Allegro" PERFORMER "Heinz Holliger: I Musici" SONGWRITER "Antonio Vivaldi" ISRC NLA507823609 REM REPLAYGAIN_TRACK_GAIN -1.75 dB REM REPLAYGAIN_TRACK_PEAK 0.746399 INDEX 01 00:00:00 TRACK 13 AUDIO TITLE "Concerto D-Dur Rv.535-1 Largo-Allegro" PERFORMER "Heinz Holliger: I Musici" SONGWRITER "Antonio Vivaldi" ISRC NLA507823604 REM REPLAYGAIN_TRACK_GAIN -0.70 dB REM REPLAYGAIN_TRACK_PEAK 0.785950 INDEX 00 01:46:39FILE "13 - Concerto D-Dur Rv.535-1 Largo-Allegro.flac" WAVE INDEX 01 00:00:00 TRACK 14 AUDIO TITLE "Concerto D-Dur Rv.535-2 Largo" PERFORMER "Heinz Holliger: I Musici" SONGWRITER "Antonio Vivaldi" ISRC NLA507823605 REM REPLAYGAIN_TRACK_GAIN -0.55 dB REM REPLAYGAIN_TRACK_PEAK 0.728516 INDEX 00 03:48:01FILE "14 - Concerto D-Dur Rv.535-2 Largo.flac" WAVE INDEX 01 00:00:00 TRACK 15 AUDIO TITLE "Concerto D-Dur Rv.535-3 Allegro Molto" PERFORMER "Heinz Holliger: I Musici" SONGWRITER "Antonio Vivaldi" ISRC NLA507823606 REM REPLAYGAIN_TRACK_GAIN -0.75 dB REM REPLAYGAIN_TRACK_PEAK 0.814392 INDEX 00 02:37:01FILE "15 - Concerto D-Dur Rv.535-3 Allegro Molto.flac" WAVE INDEX 01 00:00:00 TRACK 16 AUDIO TITLE "Vivaldi: Oboe Concerto In C, RV 446 - 1. [Allegro]" PERFORMER "Heinz Holliger: I Musici" SONGWRITER "Antonio Vivaldi" ISRC NLA507916410 REM REPLAYGAIN_TRACK_GAIN -2.77 dB REM REPLAYGAIN_TRACK_PEAK 0.999969 INDEX 00 02:49:01FILE "16 - Vivaldi: Oboe Concerto In C, RV 446 - 1. [Allegro].flac" WAVE INDEX 01 00:00:00FILE "17 - Vivaldi: Oboe Concerto In C, RV 446 - 2. Adagio -.flac" WAVE TRACK 17 AUDIO TITLE "Vivaldi: Oboe Concerto In C, RV 446 - 2. Adagio -" PERFORMER "Heinz Holliger: I Musici" SONGWRITER "Antonio Vivaldi" ISRC NLA507916411 REM REPLAYGAIN_TRACK_GAIN 2.02 dB REM REPLAYGAIN_TRACK_PEAK 0.647888 INDEX 01 00:00:00FILE "18 - Vivaldi: Oboe Concerto In C, RV 446 - 3. Allegro.flac" WAVE TRACK 18 AUDIO TITLE "Vivaldi: Oboe Concerto In C, RV 446 - 3. Allegro" PERFORMER "Heinz Holliger: I Musici" SONGWRITER "Antonio Vivaldi" ISRC NLA507916412 REM REPLAYGAIN_TRACK_GAIN -1.91 dB REM REPLAYGAIN_TRACK_PEAK 0.754730 INDEX 01 00:00:00 TRACK 19 AUDIO TITLE "Concerto A-Moll Rv.536-1 Allegro" PERFORMER "Heinz Holliger: I Musici" SONGWRITER "Antonio Vivaldi" ISRC NLA507823610 REM REPLAYGAIN_TRACK_GAIN -1.99 dB REM REPLAYGAIN_TRACK_PEAK 0.821320 INDEX 00 01:59:01FILE "19 - Concerto A-Moll Rv.536-1 Allegro.flac" WAVE INDEX 01 00:00:00 TRACK 20 AUDIO TITLE "Concerto A-Moll Rv.536-2 Largo" PERFORMER "Heinz Holliger: I Musici" SONGWRITER "Antonio Vivaldi" ISRC NLA507823611 REM REPLAYGAIN_TRACK_GAIN -0.78 dB REM REPLAYGAIN_TRACK_PEAK 0.779297 INDEX 00 02:44:51FILE "20 - Concerto A-Moll Rv.536-2 Largo.flac" WAVE INDEX 01 00:00:00 TRACK 21 AUDIO TITLE "Concerto A-Moll Rv.536-3 Allegro" PERFORMER "Heinz Holliger: I Musici" SONGWRITER "Antonio Vivaldi" ISRC NLA507823612 REM REPLAYGAIN_TRACK_GAIN -0.08 dB REM REPLAYGAIN_TRACK_PEAK 0.578125 INDEX 00 02:20:01FILE "21 - Concerto A-Moll Rv.536-3 Allegro.flac" WAVE INDEX 01 00:00:00 TRACK 22 AUDIO TITLE "Vivaldi: Oboe Concerto In B Flat, Op. 7/1, RV 465 - 1. Allegro" PERFORMER "Heinz Holliger: I Musici" SONGWRITER "Antonio Vivaldi" ISRC NLA507500121 REM REPLAYGAIN_TRACK_GAIN -3.16 dB REM REPLAYGAIN_TRACK_PEAK 0.842987 INDEX 00 01:43:39FILE "22 - Vivaldi: Oboe Concerto In B Flat, Op. 7/1, RV 465 - 1. Allegro.flac" WAVE INDEX 01 00:00:00 TRACK 23 AUDIO TITLE "Vivaldi: Oboe Concerto In B Flat, Op. 7/1, RV 465 - 2. Adagio" PERFORMER "Heinz Holliger: I Musici" SONGWRITER "Antonio Vivaldi" ISRC NLA507500122 REM REPLAYGAIN_TRACK_GAIN 0.27 dB REM REPLAYGAIN_TRACK_PEAK 0.557587 INDEX 00 02:08:01FILE "23 - Vivaldi: Oboe Concerto In B Flat, Op. 7/1, RV 465 - 2. Adagio.flac" WAVE INDEX 01 00:00:00FILE "24 - Concerto B-Dur Op.7 No.1 Rv.465-3 Allegro.flac" WAVE TRACK 24 AUDIO TITLE "Concerto B-Dur Op.7 No.1 Rv.465-3 Allegro" PERFORMER "Heinz Holliger: I Musici" SONGWRITER "Antonio Vivaldi" ISRC NLA507500123 REM REPLAYGAIN_TRACK_GAIN -1.93 dB REM REPLAYGAIN_TRACK_PEAK 0.814240 INDEX 01 00:00:00 TRACK 25 AUDIO TITLE "Concerto F-Dur Rv.543-1 Allegro" PERFORMER "Heinz Holliger: I Musici" SONGWRITER "Antonio Vivaldi" ISRC NLA507804213 REM REPLAYGAIN_TRACK_GAIN -2.24 dB REM REPLAYGAIN_TRACK_PEAK 0.838013 INDEX 00 01:54:39FILE "25 - Concerto F-Dur Rv.543-1 Allegro.flac" WAVE INDEX 01 00:00:00 TRACK 26 AUDIO TITLE "Concerto F-Dur Rv.543-2 Allegro Alla Francese" PERFORMER "Heinz Holliger: I Musici" SONGWRITER "Antonio Vivaldi" ISRC NLA507804214 REM REPLAYGAIN_TRACK_GAIN 3.98 dB REM REPLAYGAIN_TRACK_PEAK 0.447113 INDEX 00 02:17:26FILE "26 - Concerto F-Dur Rv.543-2 Allegro Alla Francese.flac" WAVE INDEX 01 00:00:00 TRACK 27 AUDIO TITLE "Concerto F-Dur Rv.543-3 Allegro" PERFORMER "Heinz Holliger: I Musici" SONGWRITER "Antonio Vivaldi" ISRC NLA507804215 REM REPLAYGAIN_TRACK_GAIN 0.66 dB REM REPLAYGAIN_TRACK_PEAK 0.648224 INDEX 00 01:17:01FILE "27 - Concerto F-Dur Rv.543-3 Allegro.flac" WAVE INDEX 01 00:00:00FILE "28 - Concerto F-Dur Rv.543-4 Minuetto.flac" WAVE TRACK 28 AUDIO TITLE "Concerto F-Dur Rv.543-4 Minuetto" PERFORMER "Heinz Holliger: I Musici" SONGWRITER "Antonio Vivaldi" ISRC NLA507804216 REM REPLAYGAIN_TRACK_GAIN 2.17 dB REM REPLAYGAIN_TRACK_PEAK 0.459656 INDEX 01 00:00:00
[teatrix.ru].t11001.torrent 
Торрент: Зарегистрирован [ 2015-12-07 05:05 ] · 24DF7AA84972406795B3D21501D884A65B10769C

Скачать .torrent

Скачать

19 KB

Статус: проверено
Скачан: 0 раз
Размер: 1.17 GB
terms.php



Быстрый ответ

Имя:

      
Для отправки сообщений необходимо включить JavaScript
Показать сообщения:    

Текущее время: 11-Дек 07:14

Часовой пояс: UTC + 3


Вы можете начинать темы
Вы можете отвечать на сообщения
Вы не можете редактировать свои сообщения
Вы не можете удалять свои сообщения
Вы не можете голосовать в опросах
Вы не можете прикреплять файлы к сообщениям
Вы можете скачивать файлы