(Classical) Ludwig van Beethoven — Piano Concertos № 1 & 3 (Op 15 & 37) (Emanuel Ax, Andre Previn) — 1995, FLAC (tracks+.cue) lossless


Статистика раздачи [Обновить пиров]
Размер:  286 MB   |    Зарегистрирован:  11 месяцев 1 день   |    Скачан:  0 раз
Сидов:  2  [  0 KB/s  ]   Подробная статистика пиров
 
   
 
 
 

[Цитировать]

Piano Concertos № 1 & 3 (Op 15 & 37)-
Жанр: Classical
Страна-производитель диска: США
Издатель (лейбл): RCA Classics
Номер по каталогу: 74321-29240-2
Год издания диска: 1995
Композитор: Ludwig van Beethoven
Аудио кодек: flac
Тип рипа: tracks+.cue
Битрейт аудио: lossless
Продолжительность: 01h16'22"
Источник: What.CD
Наличие сканов в содержимом раздачи: нет-Треклист:
Piano Concerto № 1 C-Dur Op 15
01. I. Allegro con brio [18'51"]
02. II. Largo [11'44"]
03. III. Rondo: Allegro scherzando [09'17"]
Piano Concerto № 3 c-moll Op 37
04. I. Allegro con brio [17'30"]
05. II. Largo [09'44"]
06. III. Rondo: Allegro [09'18"]-Royal Philharmonic Orchestra, cond. Andre Previn, Piano – Emanuel Ax-

EAC log

Exact Audio Copy V1.0 beta 4 from 7. December 2014
EAC extraction logfile from 22. April 2015, 16:18
Emanuel Ax, Royal Philharmonic Orchestra, André Previn / Beethoven Piano Concertos No. 1 and No. 3
Used drive  : TSSTcorpCDDVDW SN-208DB   Adapter: 1  ID: 0
Read mode               : Secure
Utilize accurate stream : Yes
Defeat audio cache      : Yes
Make use of C2 pointers : No
Read offset correction                      : 6
Overread into Lead-In and Lead-Out          : No
Fill up missing offset samples with silence : Yes
Delete leading and trailing silent blocks   : No
Null samples used in CRC calculations       : Yes
Used interface                              : Native Win32 interface for Win NT & 2000
Gap handling                                : Appended to previous track
Used output format              : User Defined Encoder
Selected bitrate                : 1024 kBit/s
Quality                         : High
Add ID3 tag                     : No
Command line compressor         : D:\Programs\Exact Audio Copy\Flac\flac.exe
Additional command line options : -8 -V -T "ARTIST=%artist%" -T "TITLE=%title%" -T "ALBUM=%albumtitle%" -T "DATE=%year%" -T "TRACKNUMBER=%tracknr%" -T "GENRE=%genre%" -T "PERFORMER=%albuminterpret%" -T "COMPOSER=%composer%" %haslyrics%--tag-from-file=LYRICS="%lyricsfile%"%haslyrics% -T "ALBUMARTIST=%albumartist%" -T "DISCNUMBER=%cdnumber%" -T "TOTALDISCS=%totalcds%" -T "TOTALTRACKS=%numtracks%" -T "COMMENT=%comment%" %source% -o %dest%
TOC of the extracted CD
     Track |   Start  |  Length  | Start sector | End sector
    ---------------------------------------------------------
        1  |  0:00.00 | 18:50.45 |         0    |    84794
        2  | 18:50.45 | 11:43.42 |     84795    |   137561
        3  | 30:34.12 |  9:16.63 |    137562    |   179324
        4  | 39:51.00 | 17:29.52 |    179325    |   258051
        5  | 57:20.52 |  9:43.60 |    258052    |   301836
        6  | 67:04.37 |  9:17.38 |    301837    |   343649
Track  1
     Filename D:\what\EAC rips\Emanuel Ax - Beethoven - Piano Concertos 1 and 3 (1995)\Emanuel Ax - Beethoven - Piano Concertos 1 and 3 (1995) [FLAC]\01 - Piano Concerto No. 1 in C major, Op. 15 - I. Allegro con brio.wav
     Pre-gap length  0:00:02.00
     Peak level 71.1 %
     Extraction speed 1.6 X
     Track quality 100.0 %
     Test CRC C823125C
     Copy CRC C823125C
     Cannot be verified as accurate (confidence 1)  [0D09551E], AccurateRip returned [6F2F59E9]  (AR v2)
     Copy OK
Track  2
     Filename D:\what\EAC rips\Emanuel Ax - Beethoven - Piano Concertos 1 and 3 (1995)\Emanuel Ax - Beethoven - Piano Concertos 1 and 3 (1995) [FLAC]\02 - Piano Concerto No. 1 in C major, Op. 15 - II. Largo.wav
     Pre-gap length  0:00:06.86
     Peak level 40.7 %
     Extraction speed 2.0 X
     Track quality 100.0 %
     Test CRC 6F977963
     Copy CRC 6F977963
     Cannot be verified as accurate (confidence 1)  [5794F0D4], AccurateRip returned [37F0179A]  (AR v2)
     Copy OK
Track  3
     Filename D:\what\EAC rips\Emanuel Ax - Beethoven - Piano Concertos 1 and 3 (1995)\Emanuel Ax - Beethoven - Piano Concertos 1 and 3 (1995) [FLAC]\03 - Piano Concerto No. 1 in C major, Op. 15 - III. Rondo. Allegro scherzando.wav
     Pre-gap length  0:00:04.42
     Peak level 72.2 %
     Extraction speed 2.2 X
     Track quality 100.0 %
     Test CRC 4CC7AFF7
     Copy CRC 4CC7AFF7
     Cannot be verified as accurate (confidence 1)  [AF047AC2], AccurateRip returned [70A20646]  (AR v2)
     Copy OK
Track  4
     Filename D:\what\EAC rips\Emanuel Ax - Beethoven - Piano Concertos 1 and 3 (1995)\Emanuel Ax - Beethoven - Piano Concertos 1 and 3 (1995) [FLAC]\04 - Piano Concerto No. 3 in C minor, Op. 37 - I. Allego con brio.wav
     Pre-gap length  0:00:09.80
     Peak level 94.2 %
     Extraction speed 2.5 X
     Track quality 100.0 %
     Test CRC 6B378783
     Copy CRC 6B378783
     Cannot be verified as accurate (confidence 1)  [BA9681D1], AccurateRip returned [E4277868]  (AR v2)
     Copy OK
Track  5
     Filename D:\what\EAC rips\Emanuel Ax - Beethoven - Piano Concertos 1 and 3 (1995)\Emanuel Ax - Beethoven - Piano Concertos 1 and 3 (1995) [FLAC]\05 - Piano Concerto No. 3 in C minor, Op. 37 - II. Largo.wav
     Pre-gap length  0:00:07.86
     Peak level 39.1 %
     Extraction speed 2.7 X
     Track quality 100.0 %
     Test CRC 0E74EF4E
     Copy CRC 0E74EF4E
     Cannot be verified as accurate (confidence 1)  [85FD0DBF], AccurateRip returned [DDA5754A]  (AR v2)
     Copy OK
Track  6
     Filename D:\what\EAC rips\Emanuel Ax - Beethoven - Piano Concertos 1 and 3 (1995)\Emanuel Ax - Beethoven - Piano Concertos 1 and 3 (1995) [FLAC]\06 - Piano Concerto No. 3 in C minor, Op. 37 - III. Rondo. Allegro.wav
     Pre-gap length  0:00:00.62
     Peak level 73.9 %
     Extraction speed 2.8 X
     Track quality 100.0 %
     Test CRC 5A22E541
     Copy CRC 5A22E541
     Cannot be verified as accurate (confidence 1)  [60F24AC7], AccurateRip returned [4D01BEC6]  (AR v2)
     Copy OK
No tracks could be verified as accurate
You may have a different pressing from the one(s) in the database
No errors occurred
End of status report
---- CUETools DB Plugin V2.1.4
[CTDB TOCID: Yv87M8gRsOYu0RdE7ursLj9rd78-] found
Submit result: Yv87M8gRsOYu0RdE7ursLj9rd78- has been confirmed
Track | CTDB Status
  1   | (2/2) Accurately ripped
  2   | (2/2) Accurately ripped
  3   | (2/2) Accurately ripped
  4   | (2/2) Accurately ripped
  5   | (2/2) Accurately ripped
  6   | (2/2) Accurately ripped
==== Log checksum 56CDB633DDB8E488038402D4C099C6211E65B8B02D7F1E1DD35418ABB739E2F0 ====

-

CUE

REM GENRE Classical
REM DISCID 4511E606
REM COMMENT "ExactAudioCopy v1.0b4"
CATALOG 0000000000000
PERFORMER "Emanuel Ax, Royal Philharmonic Orchestra, Andrй Previn"
TITLE "Beethoven Piano Concertos No. 1 and No. 3"
FILE "01 - Piano Concerto No. 1 in C major, Op. 15 - I. Allegro con brio.wav" WAVE
  TRACK 01 AUDIO
    TITLE "Piano Concerto No. 1 in C major, Op. 15 - I. Allegro con brio"
    PERFORMER "Emanuel Ax, Royal Philharmonic Orchestra, Andrй Previn"
    INDEX 01 00:00:00
  TRACK 02 AUDIO
    TITLE "Piano Concerto No. 1 in C major, Op. 15 - II. Largo"
    PERFORMER "Emanuel Ax, Royal Philharmonic Orchestra, Andrй Previn"
    INDEX 00 18:43:55
FILE "02 - Piano Concerto No. 1 in C major, Op. 15 - II. Largo.wav" WAVE
    INDEX 01 00:00:00
  TRACK 03 AUDIO
    TITLE "Piano Concerto No. 1 in C major, Op. 15 - III. Rondo. Allegro scherzando"
    PERFORMER "Emanuel Ax, Royal Philharmonic Orchestra, Andrй Previn"
    INDEX 00 11:39:10
FILE "03 - Piano Concerto No. 1 in C major, Op. 15 - III. Rondo. Allegro scherzando.wav" WAVE
    INDEX 01 00:00:00
  TRACK 04 AUDIO
    TITLE "Piano Concerto No. 3 in C minor, Op. 37 - I. Allegro con brio"
    PERFORMER "Emanuel Ax, Royal Philharmonic Orchestra, Andrй Previn"
    INDEX 00 09:07:03
FILE "04 - Piano Concerto No. 3 in C minor, Op. 37 - I. Allegro con brio.wav" WAVE
    INDEX 01 00:00:00
  TRACK 05 AUDIO
    TITLE "Piano Concerto No. 3 in C minor, Op. 37 - II. Largo"
    PERFORMER "Emanuel Ax, Royal Philharmonic Orchestra, Andrй Previn"
    INDEX 00 17:21:62
FILE "05 - Piano Concerto No. 3 in C minor, Op. 37 - II. Largo.wav" WAVE
    INDEX 01 00:00:00
  TRACK 06 AUDIO
    TITLE "Piano Concerto No. 3 in C minor, Op. 37 - III. Rondo. Allegro"
    PERFORMER "Emanuel Ax, Royal Philharmonic Orchestra, Andrй Previn"
    INDEX 00 09:43:13
FILE "06 - Piano Concerto No. 3 in C minor, Op. 37 - III. Rondo. Allegro.wav" WAVE
    INDEX 01 00:00:00
-
[teatrix.ru].t11002.torrent 
Торрент: Зарегистрирован [ 2016-01-02 18:47 ] · F0838361F46D02180FCDC68102036836B8FC951C

Скачать .torrent

Скачать

13 KB

Статус: проверено
Скачан: 0 раз
Размер: 286 MB
terms.php



Быстрый ответ

Имя:

      
Для отправки сообщений необходимо включить JavaScript
Показать сообщения:    

Текущее время: 03-Дек 22:44

Часовой пояс: UTC + 3


Вы можете начинать темы
Вы можете отвечать на сообщения
Вы не можете редактировать свои сообщения
Вы не можете удалять свои сообщения
Вы не можете голосовать в опросах
Вы не можете прикреплять файлы к сообщениям
Вы можете скачивать файлы