(Classical) Charles Koechlin - Complete Music for Saxophone - David Brutti, Farinelli, Duo Disecheis, Caroli, Atem Saxophone Quartet, Orchestra Citta Aperta - 2012, FLAC (image+.cue) lossless


 

[Цитировать]

Charles Koechlin - Complete Music for Saxophone - David Brutti, Farinelli, Duo Disecheis, Caroli, Atem Saxophone Quartet, Orchestra Citta Aperta
Жанр: Classical
Год издания диска: 2012
Издатель (лейбл): Brilliant Classics
Номер по каталогу: 9266
Дата записи: 2011-2012
Аудиокодек: FLAC
Тип рипа: image+.cue
Битрейт аудио: lossless
Продолжительность: 181:49
Источник: собственный рип
Наличие сканов в содержимом раздачи: да
Треклист:
Charles Koechlin (1867-1950)

CD1

[1]-[5] Sonatine, Op.194 No.1 (1942)
[6]-[9] Sonatine, Op.194b No.2 (1943)
[10] Monodie No.9 from 12 Monodies, Op.213 (1947)
[11] Le repos de Tityre from 11 Monodies pour instrument à vent, Op.216 (1947)
[12]-[35] 24 Duos, Op.186 (1946) for two saxophones (1946)

CD2

[1]-[15] 15 Etudes, Op.188 (1943) for alto saxophone and piano
[16]-[22] 7 Pièces from 15 Pièces pour cor et piano, Op.180 (1942)

CD3

[1] Epitaphe de Jean Harlow, Op.164 (1937)
[2]-[7] Septuor pour instruments à vent, Op.165 (1937)
[8]-[9] Op.165 bis (1937)
[10] Prelude No.5 from 15 Préludes pour piano, Op.209 (1946-47)
[11]-[15] Sonatine, Op.194 No.1 (1942) for soprano saxophone and chamber orchestra
[16]-[19] Sonatine, Op.194b No.2 (1943) for soprano saxophone and chamber orchestra
Исполнители:
David Brutti saxophones
Duo Disecheis (CD1: [1]-[9], CD2: [1]-[22])
Atem Saxophone Quartet (CD1: [12]-[35])
Mario Caroli flute
Filippo Farinelli piano
Orchestra Città Aperta & Wind Ensemble / Filippo Farinelli

Лог создания рипа: CD1

Exact Audio Copy V1.0 beta 3 from 29. August 2011
EAC extraction logfile from 20. March 2015, 0:42
David Brutti / Koechlin - Complete Music for Saxophone - CD 1
Used drive : HL-DT-STDVDRAM GU70N Adapter: 0 ID: 0
Read mode : SecureUtilize accurate stream : YesDefeat audio cache : YesMake use of C2 pointers : No
Read offset correction : 48Overread into Lead-In and Lead-Out : NoFill up missing offset samples with silence : YesDelete leading and trailing silent blocks : NoNull samples used in CRC calculations : YesUsed interface : Native Win32 interface for Win NT & 2000
Used output format : User Defined EncoderSelected bitrate : 128 kBit/sQuality : HighAdd ID3 tag : NoCommand line compressor : C:\Program Files (x86)\Exact Audio Copy\Flac\flac.exeAdditional command line options : -V -8 -T "Date=%year%" -T "Genre=%genre%" %source%
TOC of the extracted CD
Track | Start | Length | Start sector | End sector --------------------------------------------------------- 1 | 0:00.00 | 2:33.17 | 0 | 11491 2 | 2:33.17 | 2:04.16 | 11492 | 20807 3 | 4:37.33 | 2:43.40 | 20808 | 33072 4 | 7:20.73 | 1:48.19 | 33073 | 41191 5 | 9:09.17 | 1:50.04 | 41192 | 49445 6 | 10:59.21 | 4:08.39 | 49446 | 68084 7 | 15:07.60 | 1:10.40 | 68085 | 73374 8 | 16:18.25 | 2:40.12 | 73375 | 85386 9 | 18:58.37 | 2:16.14 | 85387 | 95600 10 | 21:14.51 | 1:57.33 | 95601 | 104408 11 | 23:12.09 | 3:30.35 | 104409 | 120193 12 | 26:42.44 | 1:16.13 | 120194 | 125906 13 | 27:58.57 | 0:57.73 | 125907 | 130254 14 | 28:56.55 | 2:05.15 | 130255 | 139644 15 | 31:01.70 | 0:45.30 | 139645 | 143049 16 | 31:47.25 | 1:44.59 | 143050 | 150908 17 | 33:32.09 | 0:39.27 | 150909 | 153860 18 | 34:11.36 | 1:12.59 | 153861 | 159319 19 | 35:24.20 | 0:50.40 | 159320 | 163109 20 | 36:14.60 | 2:11.59 | 163110 | 172993 21 | 38:26.44 | 1:32.53 | 172994 | 179946 22 | 39:59.22 | 1:23.36 | 179947 | 186207 23 | 41:22.58 | 1:28.42 | 186208 | 192849 24 | 42:51.25 | 0:56.69 | 192850 | 197118 25 | 43:48.19 | 1:05.13 | 197119 | 202006 26 | 44:53.32 | 2:06.57 | 202007 | 211513 27 | 47:00.14 | 1:17.39 | 211514 | 217327 28 | 48:17.53 | 2:31.03 | 217328 | 228655 29 | 50:48.56 | 1:43.40 | 228656 | 236420 30 | 52:32.21 | 2:05.31 | 236421 | 245826 31 | 54:37.52 | 2:23.32 | 245827 | 256583 32 | 57:01.09 | 1:43.46 | 256584 | 264354 33 | 58:44.55 | 1:08.41 | 264355 | 269495 34 | 59:53.21 | 3:00.55 | 269496 | 283050 35 | 62:54.01 | 1:34.27 | 283051 | 290127
Range status and errors
Selected range
Filename C:\temp\Koechlin - Complete Music for Saxophone\CD1\Koechlin - Complete Music for Saxophone - CD 1.wav
Peak level 96.6 % Extraction speed 5.3 X Range quality 100.0 % Test CRC 888E19BE Copy CRC 888E19BE Copy OK
No errors occurred
AccurateRip summary
Track 1 cannot be verified as accurate (confidence 2) [19EBDF16], AccurateRip returned [6EE1C6ED] (AR v2)Track 2 cannot be verified as accurate (confidence 2) [16535770], AccurateRip returned [D8169584] (AR v2)Track 3 cannot be verified as accurate (confidence 2) [DACC71FA], AccurateRip returned [AD68CEDF] (AR v2)Track 4 cannot be verified as accurate (confidence 2) [767E21D2], AccurateRip returned [1EB886D0] (AR v2)Track 5 cannot be verified as accurate (confidence 2) [31B06A38], AccurateRip returned [FE7AA0B8] (AR v2)Track 6 cannot be verified as accurate (confidence 2) [01583A40], AccurateRip returned [1A715276] (AR v2)Track 7 cannot be verified as accurate (confidence 2) [BBB43B10], AccurateRip returned [757AEBF7] (AR v2)Track 8 cannot be verified as accurate (confidence 2) [367AB79C], AccurateRip returned [95331628] (AR v2)Track 9 cannot be verified as accurate (confidence 2) [D7E5E13D], AccurateRip returned [8CB2AD41] (AR v2)Track 10 cannot be verified as accurate (confidence 2) [F5D65242], AccurateRip returned [208E3504] (AR v2)Track 11 cannot be verified as accurate (confidence 2) [54DF1E5E], AccurateRip returned [58980645] (AR v2)Track 12 cannot be verified as accurate (confidence 2) [3FB516D4], AccurateRip returned [D526F5B8] (AR v2)Track 13 cannot be verified as accurate (confidence 2) [53AF2B5F], AccurateRip returned [57114DF6] (AR v2)Track 14 cannot be verified as accurate (confidence 2) [DF126080], AccurateRip returned [E90AD544] (AR v2)Track 15 cannot be verified as accurate (confidence 2) [9654B9CB], AccurateRip returned [6777FE2E] (AR v2)Track 16 cannot be verified as accurate (confidence 2) [383530E7], AccurateRip returned [B6229759] (AR v2)Track 17 cannot be verified as accurate (confidence 2) [84A55ED5], AccurateRip returned [EB4CB5F9] (AR v2)Track 18 cannot be verified as accurate (confidence 2) [BB44CF0B], AccurateRip returned [437C633E] (AR v2)Track 19 cannot be verified as accurate (confidence 2) [4B237799], AccurateRip returned [55F6DB56] (AR v2)Track 20 cannot be verified as accurate (confidence 2) [5738DA3F], AccurateRip returned [739C81A2] (AR v2)Track 21 cannot be verified as accurate (confidence 2) [0DBC725F], AccurateRip returned [CEEDB652] (AR v2)Track 22 cannot be verified as accurate (confidence 2) [9563323D], AccurateRip returned [C6E96227] (AR v2)Track 23 cannot be verified as accurate (confidence 2) [431586A0], AccurateRip returned [6681EDAB] (AR v2)Track 24 cannot be verified as accurate (confidence 2) [8382DC56], AccurateRip returned [39EF87C6] (AR v2)Track 25 cannot be verified as accurate (confidence 2) [8A19B740], AccurateRip returned [529877F9] (AR v2)Track 26 cannot be verified as accurate (confidence 2) [D077D53A], AccurateRip returned [A95868C1] (AR v2)Track 27 cannot be verified as accurate (confidence 2) [63074347], AccurateRip returned [9FC71BBA] (AR v2)Track 28 cannot be verified as accurate (confidence 2) [8DE90BE2], AccurateRip returned [CBCA7F80] (AR v2)Track 29 cannot be verified as accurate (confidence 2) [240C1CD6], AccurateRip returned [A9591AF1] (AR v2)Track 30 cannot be verified as accurate (confidence 2) [2A07E2A7], AccurateRip returned [5E9EC37C] (AR v2)Track 31 cannot be verified as accurate (confidence 2) [C45BE457], AccurateRip returned [137C2D59] (AR v2)Track 32 cannot be verified as accurate (confidence 2) [7F8A59FD], AccurateRip returned [14E102DF] (AR v2)Track 33 cannot be verified as accurate (confidence 2) [CA36FA2C], AccurateRip returned [518916E9] (AR v2)Track 34 cannot be verified as accurate (confidence 2) [33222E8B], AccurateRip returned [EF93E23A] (AR v2)Track 35 cannot be verified as accurate (confidence 2) [3A2997AA], AccurateRip returned [0F090830] (AR v2)
No tracks could be verified as accurateYou may have a different pressing from the one(s) in the database
End of status report
==== Log checksum 87E1FAF240923A8502C01A77853A5F921BB573B56E6D35E177846682E5B53B47 ====

Лог создания рипа: CD2

Exact Audio Copy V1.0 beta 3 from 29. August 2011
EAC extraction logfile from 20. March 2015, 1:28
Duo Disecheis / Koechlin - Complete Music for Saxophone - CD 2
Used drive : HL-DT-STDVDRAM GU70N Adapter: 0 ID: 0
Read mode : SecureUtilize accurate stream : YesDefeat audio cache : YesMake use of C2 pointers : No
Read offset correction : 48Overread into Lead-In and Lead-Out : NoFill up missing offset samples with silence : YesDelete leading and trailing silent blocks : NoNull samples used in CRC calculations : YesUsed interface : Native Win32 interface for Win NT & 2000
Used output format : User Defined EncoderSelected bitrate : 128 kBit/sQuality : HighAdd ID3 tag : NoCommand line compressor : C:\Program Files (x86)\Exact Audio Copy\Flac\flac.exeAdditional command line options : -V -8 -T "Date=%year%" -T "Genre=%genre%" %source%
TOC of the extracted CD
Track | Start | Length | Start sector | End sector --------------------------------------------------------- 1 | 0:00.00 | 1:30.07 | 0 | 6756 2 | 1:30.07 | 3:59.33 | 6757 | 24714 3 | 5:29.40 | 2:00.71 | 24715 | 33785 4 | 7:30.36 | 2:57.48 | 33786 | 47108 5 | 10:28.09 | 2:12.71 | 47109 | 57079 6 | 12:41.05 | 2:44.74 | 57080 | 69453 7 | 15:26.04 | 3:44.45 | 69454 | 86298 8 | 19:10.49 | 3:30.66 | 86299 | 102114 9 | 22:41.40 | 2:24.50 | 102115 | 112964 10 | 25:06.15 | 3:01.03 | 112965 | 126542 11 | 28:07.18 | 0:55.41 | 126543 | 130708 12 | 29:02.59 | 5:20.56 | 130709 | 154764 13 | 34:23.40 | 1:53.19 | 154765 | 163258 14 | 36:16.59 | 2:07.45 | 163259 | 172828 15 | 38:24.29 | 2:45.20 | 172829 | 185223 16 | 41:09.49 | 3:11.18 | 185224 | 199566 17 | 44:20.67 | 4:15.26 | 199567 | 218717 18 | 48:36.18 | 3:26.38 | 218718 | 234205 19 | 52:02.56 | 3:33.67 | 234206 | 250247 20 | 55:36.48 | 3:45.20 | 250248 | 267142 21 | 59:21.68 | 2:52.00 | 267143 | 280042 22 | 62:13.68 | 3:17.30 | 280043 | 294847
Range status and errors
Selected range
Filename C:\temp\Koechlin - Complete Music for Saxophone\CD2\Koechlin - Complete Music for Saxophone - CD 2.wav
Peak level 96.7 % Extraction speed 5.3 X Range quality 100.0 % Test CRC 7BF0C186 Copy CRC 7BF0C186 Copy OK
No errors occurred
AccurateRip summary
Track 1 cannot be verified as accurate (confidence 2) [67C6C177], AccurateRip returned [CFA14121] (AR v2)Track 2 cannot be verified as accurate (confidence 2) [809E390E], AccurateRip returned [F3BB5C04] (AR v2)Track 3 cannot be verified as accurate (confidence 2) [14069E1C], AccurateRip returned [A41169A4] (AR v2)Track 4 cannot be verified as accurate (confidence 2) [3BEF6EEA], AccurateRip returned [B3304D6F] (AR v2)Track 5 cannot be verified as accurate (confidence 2) [9C8D75D0], AccurateRip returned [9F8665F3] (AR v2)Track 6 cannot be verified as accurate (confidence 2) [F4AB48BE], AccurateRip returned [5BD44108] (AR v2)Track 7 cannot be verified as accurate (confidence 2) [27924E92], AccurateRip returned [0A9B162A] (AR v2)Track 8 cannot be verified as accurate (confidence 2) [907BF84D], AccurateRip returned [53BB564C] (AR v2)Track 9 cannot be verified as accurate (confidence 2) [CC0BA016], AccurateRip returned [CDAA272C] (AR v2)Track 10 cannot be verified as accurate (confidence 2) [D0D042CF], AccurateRip returned [B325CAF3] (AR v2)Track 11 cannot be verified as accurate (confidence 2) [6C7E7EA9], AccurateRip returned [D00051AB] (AR v2)Track 12 cannot be verified as accurate (confidence 2) [E856AA2A], AccurateRip returned [3FB9B262] (AR v2)Track 13 cannot be verified as accurate (confidence 2) [8DEF119B], AccurateRip returned [AFED3B0C] (AR v2)Track 14 cannot be verified as accurate (confidence 2) [3BA2CE35], AccurateRip returned [C955BB9D] (AR v2)Track 15 cannot be verified as accurate (confidence 2) [F28AFE4D], AccurateRip returned [4ECA94A1] (AR v2)Track 16 cannot be verified as accurate (confidence 2) [3B337613], AccurateRip returned [1F5F2CB7] (AR v2)Track 17 cannot be verified as accurate (confidence 2) [069F9485], AccurateRip returned [D7DE8CE5] (AR v2)Track 18 cannot be verified as accurate (confidence 2) [F02EF24C], AccurateRip returned [80DC93A1] (AR v2)Track 19 cannot be verified as accurate (confidence 2) [38C3452D], AccurateRip returned [D0BDCE5B] (AR v2)Track 20 cannot be verified as accurate (confidence 2) [AFF75EE8], AccurateRip returned [38B551A3] (AR v2)Track 21 cannot be verified as accurate (confidence 2) [AEC88FC5], AccurateRip returned [5D2192B3] (AR v2)Track 22 cannot be verified as accurate (confidence 2) [8F2FAA58], AccurateRip returned [D669F890] (AR v2)
No tracks could be verified as accurateYou may have a different pressing from the one(s) in the database
End of status report
==== Log checksum 65B0043CCCFFB781AA2C8B55DA60C41A40A0A7490522861596342525396EF5FF ====

Лог создания рипа: CD3

Exact Audio Copy V1.0 beta 3 from 29. August 2011
EAC extraction logfile from 21. March 2015, 17:49
David Brutti / Koechlin - Complete Music for Saxophone - CD 3
Used drive : HL-DT-STDVDRAM GU70N Adapter: 0 ID: 0
Read mode : SecureUtilize accurate stream : YesDefeat audio cache : YesMake use of C2 pointers : No
Read offset correction : 48Overread into Lead-In and Lead-Out : NoFill up missing offset samples with silence : YesDelete leading and trailing silent blocks : NoNull samples used in CRC calculations : YesUsed interface : Native Win32 interface for Win NT & 2000
Used output format : User Defined EncoderSelected bitrate : 128 kBit/sQuality : HighAdd ID3 tag : NoCommand line compressor : C:\Program Files (x86)\Exact Audio Copy\Flac\flac.exeAdditional command line options : -V -8 -T "Date=%year%" -T "Genre=%genre%" %source%
TOC of the extracted CD
Track | Start | Length | Start sector | End sector --------------------------------------------------------- 1 | 0:00.00 | 3:47.55 | 0 | 17079 2 | 3:47.55 | 1:49.60 | 17080 | 25314 3 | 5:37.40 | 4:11.44 | 25315 | 44183 4 | 9:49.09 | 1:51.16 | 44184 | 52524 5 | 11:40.25 | 1:49.58 | 52525 | 60757 6 | 13:30.08 | 3:56.11 | 60758 | 78468 7 | 17:26.19 | 1:38.23 | 78469 | 85841 8 | 19:04.42 | 5:06.50 | 85842 | 108841 9 | 24:11.17 | 2:59.24 | 108842 | 122290 10 | 27:10.41 | 1:18.59 | 122291 | 128199 11 | 28:29.25 | 3:04.46 | 128200 | 142045 12 | 31:33.71 | 2:10.21 | 142046 | 151816 13 | 33:44.17 | 2:57.28 | 151817 | 165119 14 | 36:41.45 | 1:52.28 | 165120 | 173547 15 | 38:33.73 | 1:57.05 | 173548 | 182327 16 | 40:31.03 | 4:43.14 | 182328 | 203566 17 | 45:14.17 | 1:08.26 | 203567 | 208692 18 | 46:22.43 | 2:48.29 | 208693 | 221321 19 | 49:10.72 | 2:39.18 | 221322 | 233264
Range status and errors
Selected range
Filename C:\temp\Koechlin - Complete Music for Saxophone\CD3\Koechlin - Complete Music for Saxophone - CD 3.wav
Peak level 96.7 % Extraction speed 4.9 X Range quality 99.9 % Test CRC 3B43F477 Copy CRC 3B43F477 Copy OK
No errors occurred
AccurateRip summary
Track 1 cannot be verified as accurate (confidence 2) [B3EF44D6], AccurateRip returned [9B05631D] (AR v2)Track 2 cannot be verified as accurate (confidence 2) [DDCE32C7], AccurateRip returned [267B4C7F] (AR v2)Track 3 cannot be verified as accurate (confidence 2) [23D32815], AccurateRip returned [6A3B07BA] (AR v2)Track 4 cannot be verified as accurate (confidence 2) [FBDDFE8B], AccurateRip returned [3F854AF0] (AR v2)Track 5 cannot be verified as accurate (confidence 2) [3A33A30A], AccurateRip returned [3302501F] (AR v2)Track 6 cannot be verified as accurate (confidence 2) [264CAC17], AccurateRip returned [72B3DDAB] (AR v2)Track 7 cannot be verified as accurate (confidence 2) [5CE724A8], AccurateRip returned [61A0415A] (AR v2)Track 8 cannot be verified as accurate (confidence 2) [D8F18342], AccurateRip returned [B93F80A5] (AR v2)Track 9 cannot be verified as accurate (confidence 2) [6C9F5A48], AccurateRip returned [8729D2DE] (AR v2)Track 10 cannot be verified as accurate (confidence 2) [8FDC278F], AccurateRip returned [44D12196] (AR v2)Track 11 cannot be verified as accurate (confidence 2) [10222830], AccurateRip returned [24096C6D] (AR v2)Track 12 cannot be verified as accurate (confidence 2) [96A542F6], AccurateRip returned [05FAEA19] (AR v2)Track 13 cannot be verified as accurate (confidence 2) [29C5E750], AccurateRip returned [CDCF97D0] (AR v2)Track 14 cannot be verified as accurate (confidence 2) [26BED198], AccurateRip returned [E1933E75] (AR v2)Track 15 cannot be verified as accurate (confidence 2) [679B24F6], AccurateRip returned [DD1F2D9F] (AR v2)Track 16 cannot be verified as accurate (confidence 2) [729B6BD9], AccurateRip returned [CD75CBDF] (AR v2)Track 17 cannot be verified as accurate (confidence 2) [4C0626BC], AccurateRip returned [17288221] (AR v2)Track 18 cannot be verified as accurate (confidence 2) [E7A437FE], AccurateRip returned [D9C40184] (AR v2)Track 19 cannot be verified as accurate (confidence 2) [849F2A77], AccurateRip returned [0D454134] (AR v2)
No tracks could be verified as accurateYou may have a different pressing from the one(s) in the database
End of status report
==== Log checksum BA11353D1E014DACFE192C7CE5F097CE97BA93A6EC68F74612FE8E83F32D5BB8 ====



Показать сообщения:    

Текущее время: 21-Янв 11:34

Часовой пояс: UTC + 3


Вы не можете начинать темы
Вы не можете отвечать на сообщения
Вы не можете редактировать свои сообщения
Вы не можете удалять свои сообщения
Вы не можете голосовать в опросах
Вы не можете прикреплять файлы к сообщениям
Вы не можете скачивать файлы