(Score/TV) [WEB] Люди / Humans (by Cristobal Tapia de Veer) - 2015, FLAC (tracks), lossless


Статистика раздачи [Обновить пиров]
Размер:  383 MB   |    Зарегистрирован:  11 месяцев 12 дней   |    Скачан:  0 раз

Полного источника не было: 2 дня 18 часов

Личеров:  8  [  0 KB/s  ]   Подробная статистика пиров
 
   
 
 
 

[Цитировать]

Люди / Humans Жанр: Score
Композитор: Cristobal Tapia de Veer
Год выпуска диска: 2015
Страна-производитель диска: UK
Издатель (лейбл): Silva Screen Music
Номер по каталогу: SILED1498
Аудиокодек: FLAC (*.flac)
Тип рипа: tracks
Битрейт аудио: lossless
Продолжительность: 1:22:51
Источник: silvascreenmusic.greedbag.com/buy/humans-original-soundtrack-0
Наличие сканов в содержимом раздачи: нет
Треклист:
01. Synthetic Humans: Genesis (3:21)
02. Outcasts (2:30)
03. Singularity Slaves (4:13)
04. Sentients, Pt. 1 (3:41)
05. Exodus/Recovery (3:54)
06. Are You Conscious? (2:10)
07. Meant to Feel (4:25)
08. No Harm Will Ever Come to You (6:05)
09. Hijackers (1:43)
10. Faster, Stronger, Fearless (4:13)
11. 18+ (3:59)
12. Synthetic Humans: Intelligence Explosion (4:59)
13. Niska Strikes Back (2:53)
14. Creeping Robots (4:23)
15. Apricot Jam (3:15)
16. I Was Never Little (3:20)
17. Bring Her Back (2:54)
18. Bloody Circuits Recharged (4:53)
19. If I Die It Means I Have Lived (1:55)
20. Tree of Life (4:49)
21. Sentients, Pt. 2 (3:40)
22. Mia Resurrected (5:50)

Лог проверки качества

-----------------------
DON'T MODIFY THIS FILE
-----------------------
PERFORMER: auCDtect Task Manager, ver. 1.6.0 RC1 build 1.6.0.1Copyright (c) 2008-2010 y-soft. All rights reservedhttp://y-soft.org
ANALYZER: auCDtect: CD records authenticity detector, version 0.8.2Copyright (c) 2004 Oleg Berngardt. All rights reserved.Copyright (c) 2004 Alexander Djourik. All rights reserved.
FILE: 22. Mia Resurrected.flac Size: 28014979 Hash: 616A2F63BB80023D6EB9C18C71C3FE7B Accuracy: -m0 Conclusion: MPEG 100% Signature: 7CF8894186DC0AAFF4F983E8C867DF29ED7E7DB9FILE: 21. Sentients, Pt. 2.flac Size: 18299475 Hash: 9B6BFD6E7B98F3B33CA23CB4BEBB3BAD Accuracy: -m0 Conclusion: MPEG 100% Signature: 9FB436169660FA5D048FF6ED82832E4C315F5FD3FILE: 20. Tree of Life.flac Size: 24358743 Hash: 138DD89FD19C221B85037908004AC03C Accuracy: -m0 Conclusion: MPEG 90% Signature: EE1023E99C5F486F0DC8C43B0EE5A03BD11540D5FILE: 19. If I Die It Means I Have Lived.flac Size: 8799692 Hash: 5C15D2F97502B8B49BBE71868A6DEE84 Accuracy: -m0 Conclusion: MPEG 100% Signature: 147FCB0B27E36351343B58B642A71F900EEDDAC1FILE: 18. Bloody Circuits Recharged.flac Size: 22607615 Hash: 01132E6A77E6EEC00B325E7AF6CA939A Accuracy: -m0 Conclusion: MPEG 100% Signature: 8A4E13892F5773149801F8ABF8A979C2D1B5057CFILE: 17. Bring Her Back.flac Size: 11681442 Hash: A68093AB37ABFF15D05B1239B71A33E7 Accuracy: -m0 Conclusion: MPEG 100% Signature: 3EA0FE89C918A485801D47837305EC54376EE23DFILE: 16. I Was Never Little.flac Size: 16740423 Hash: 82D4083F87DB16405855BDBCB49CB296 Accuracy: -m0 Conclusion: MPEG 100% Signature: 56B54BEFF359871670321941CA3C5ED7A1E34E67FILE: 15. Apricot Jam.flac Size: 12831120 Hash: 193CDF6CFE14D0ABB671B861ED6BD299 Accuracy: -m0 Conclusion: MPEG 100% Signature: 5D0079120FD9D2BC99887FF0B3E3CB0272F92F3FFILE: 14. Creeping Robots.flac Size: 18392803 Hash: 7017B76B5BB7AB9A95126221DA117800 Accuracy: -m0 Conclusion: MPEG 100% Signature: EA9621A5767ED77F3832CAD4B0A2047BB7415EEEFILE: 13. Niska Strikes Back.flac Size: 14230500 Hash: 3CDFC73B53AA8DA1B26E23FE9FD8492A Accuracy: -m0 Conclusion: MPEG 100% Signature: 878B3A716C7D4A9046884CB73B0CE7B732CB1D52FILE: 12. Synthetic Humans - Intelligence Explosion.flac Size: 28895856 Hash: 4AE45314A8C0C8271E8D3AC3E229F319 Accuracy: -m0 Conclusion: CDDA 62% Signature: D373FE088BD00B9480703E0549D2906012EDD2E2FILE: 11. 18+.flac Size: 17780840 Hash: 031A0DDC0E3993CAE4DBE46A94B91C5F Accuracy: -m0 Conclusion: MPEG 100% Signature: EC3573A8B710C43DD242DDCFF6D9EF9639322E13FILE: 10. Faster, Stronger, Fearless.flac Size: 22401429 Hash: 8F3F31BD7EDE3B1958C8CBE81A913AE5 Accuracy: -m0 Conclusion: CDDA 43% Signature: 8CAE6C816CCEA606D3D63AC9537CCBEDB0CAB5E5FILE: 09. Hijackers.flac Size: 7358208 Hash: D3EAC5E5BAF929FC656CA22F1C4B63BD Accuracy: -m0 Conclusion: MPEG 100% Signature: 73574D5D1A328D02BC09183BB1BADC9EDAE7236FFILE: 08. No Harm Will Ever Come to You.flac Size: 28753180 Hash: 383E468395E98525BA4D188690F582A9 Accuracy: -m0 Conclusion: MPEG 99% Signature: 27EC20F01B92411FC8D66FF88D77117626D1EAA7FILE: 07. Meant to Feel.flac Size: 24448143 Hash: 287BEF07A8E8401D2A2A3D481723AA25 Accuracy: -m0 Conclusion: CDDA 43% Signature: E10134EB2E2194244B4C0FC39D721DA60DC72A0DFILE: 06. Are You Conscious.flac Size: 9326240 Hash: 3F3B60F7F13608F10DC89EF6592B7086 Accuracy: -m0 Conclusion: MPEG 100% Signature: DFC841BC4D99FCA30F9A5F2213F7318EF63C7EC9FILE: 05. Exodus-Recovery.flac Size: 15561404 Hash: 760ED860D716BB0117C4D4E8644EC452 Accuracy: -m0 Conclusion: MPEG 100% Signature: 87F25B6F5E34F4A1C67095B979DD43F50F36BB91FILE: 04. Sentients, Pt. 1.flac Size: 19276310 Hash: B586F915D6F26E9A6F53413427A470C8 Accuracy: -m0 Conclusion: MPEG 100% Signature: C3A5AA4459CC59B4570F6069C0060D2B6A038147FILE: 03. Singularity Slaves.flac Size: 22991622 Hash: 8435B305F3FB4B1FE86425D055F46770 Accuracy: -m0 Conclusion: CDDA 58% Signature: 9F94904499E58AF76289AAF21BE2869281F2917FFILE: 02. Outcasts.flac Size: 11569895 Hash: 1E4BC3AA58BB67712B091AAB87E0016A Accuracy: -m0 Conclusion: MPEG 100% Signature: 397C7412BB517BF4214B926B59ADAA7D83C59441FILE: 01. Synthetic Humans - Genesis.flac Size: 16608395 Hash: 4D36C931245E22B83F7B34A783CE17CF Accuracy: -m0 Conclusion: MPEG 89% Signature: F0BA28332144E2A664B3E195351FA75A8C61EB6E

Скриншот спектра частот

Динамический диапазон

foobar2000 1.3.9 / Dynamic Range Meter 1.1.1
log date: 2015-12-06 16:07:29
--------------------------------------------------------------------------------
Analyzed: Cristobal Tapia de Veer / Humans (Original Soundtrack)
--------------------------------------------------------------------------------
DR Peak RMS Duration Track
--------------------------------------------------------------------------------
DR9 -0.11 dB -13.52 dB 3:21 ?-Synthetic Humans: Genesis
DR9 -0.10 dB -11.84 dB 2:30 ?-Outcasts
DR5 -0.11 dB -8.70 dB 4:13 ?-Singularity Slaves
DR7 -0.11 dB -10.00 dB 3:41 ?-Sentients, Pt. 1
DR8 -0.11 dB -11.47 dB 3:54 ?-Exodus/Recovery
DR8 -0.11 dB -11.18 dB 2:10 ?-Are You Conscious?
DR6 -0.10 dB -9.28 dB 4:25 ?-Meant to Feel
DR7 -0.11 dB -10.18 dB 6:05 ?-No Harm Will Ever Come to You
DR9 -0.11 dB -11.47 dB 1:43 ?-Hijackers
DR8 -0.11 dB -10.28 dB 4:13 ?-Faster, Stronger, Fearless
DR6 -0.11 dB -10.29 dB 3:59 ?-18+
DR7 -0.11 dB -10.18 dB 4:59 ?-Synthetic Humans: Intelligence Explosion
DR7 -0.10 dB -11.11 dB 2:53 ?-Niska Strikes Back
DR8 -0.11 dB -11.84 dB 4:23 ?-Creeping Robots
DR8 -0.11 dB -12.56 dB 3:15 ?-Apricot Jam
DR8 -0.11 dB -11.24 dB 3:20 ?-I Was Never Little
DR8 -0.11 dB -11.18 dB 2:54 ?-Bring Her Back
DR9 -0.11 dB -12.24 dB 4:53 ?-Bloody Circuits Recharged
DR7 -0.11 dB -11.12 dB 1:55 ?-If I Die It Means I Have Lived
DR7 -0.11 dB -10.01 dB 4:49 ?-Tree of Life
DR7 -0.11 dB -9.59 dB 3:40 ?-Sentients, Pt. 2
DR6 -0.11 dB -11.74 dB 5:50 ?-Mia Resurrected
--------------------------------------------------------------------------------
Number of tracks: 22
Official DR value: DR7
Samplerate: 44100 Hz
Channels: 2
Bits per sample: 16
Bitrate: 640 kbps
Codec: FLAC
================================================================================
[teatrix.ru].t11005.torrent 
Торрент: Зарегистрирован [ 2015-12-25 14:40 ] · 0278FF03F0C4CDE0896490A8DD9AFA21288D8571

Скачать .torrent

Скачать

17 KB

Статус: проверено
Скачан: 0 раз
Размер: 383 MB
terms.php



Быстрый ответ

Имя:

      
Для отправки сообщений необходимо включить JavaScript
Показать сообщения:    

Текущее время: 07-Дек 13:41

Часовой пояс: UTC + 3


Вы можете начинать темы
Вы можете отвечать на сообщения
Вы не можете редактировать свои сообщения
Вы не можете удалять свои сообщения
Вы не можете голосовать в опросах
Вы не можете прикреплять файлы к сообщениям
Вы можете скачивать файлы