(Soundtrack) Storm Tarantino Hits (Tarantino Hits Vol2) - 2003, FLAC (image+.cue), lossless


Статистика раздачи [Обновить пиров]
Размер:  505 MB   |    Зарегистрирован:  1 год   |    Скачан:  0 раз

Полного источника не было: 4 месяца 26 дней

Личеров:  1  [  0 KB/s  ]   Подробная статистика пиров
 
   
 
 
 

[Цитировать]

Storm Tarantino Hits (Tarantino Hits Vol2) Жанр: Soundtrack
Год выпуска диска: 2003
Издатель (лейбл): ORZ RECORDS
Номер по каталогу: 1010-S99-TAR2
Аудиокодек: FLAC (*.flac)
Тип рипа: image+.cue
Битрейт аудио: lossless
Продолжительность: 73 мин.
Источник: собственный рип
Наличие сканов в содержимом раздачи: нет
Треклист:
01. ZZ Top / She's Just Killing Me [0:04:55.45]
02. Creedence / Run Through The Jungle [0:02:44.48]
03. Stevie Ray Vanghan / Marry Had A Little Lamb [0:04:11.06]
04. Pussy Lovers / Chet's Speech [0:00:42.17]
05. Stevie Ray Vanghan / Whillie The Wimp [0:04:33.47]
06. Edwyn Collins / A Girl Like You [0:03:52.02]
07. Surfaris / Wipeout [0:02:08.69]
08. John Travolta & Olivia Newton John / You Are The One That I Want [0:02:44.16]
09. Runaway / Del Shannon [0:02:24.12]
10. Travolta & Samuel L. Jackson / Royale With Cheese [0:00:36.17]
11. James Taylor Quartet / Jackie's Theme [0:03:22.05]
12. The Imagination / Just An Illusion [0:03:52.31]
13. Bobbie Womack / Across 110th Street [0:03:48.12]
14. Al Green / Let's Stay Together [0:03:14.51]
15. Dire Straits / Six Blade Knife [0:04:04.00]
16. Therapy? & Fatal / Come And Die [0:04:26.25]
17. L7 / Shitlist [0:02:48.45]
18. Eliot Easton's Tiki Gods / Monte Carlo Nights [0:03:22.71]
19. Leonard Cohen / Waiting For The Miracle [0:07:37.54]
20. The Doors / Riders On The Storm [0:06:50.19]

Лог создания рипа

Exact Audio Copy V1.1 from 23. June 2015
Отчёт EAC об извлечении, выполненном 29. ноября 2015, 22:03
Various / Storm Tarantino Hits (Tarantino Hits Vol2)
Дисковод: TSSTcorpCDDVDW SH-224FB Adapter: 1 ID: 0
Режим чтения : ДостоверностьИспользование точного потока : ДаОтключение кэша аудио : ДаИспользование указателей C2 : Нет
Коррекция смещения при чтении : 6Способность читать области Lead-in и Lead-out : ДаЗаполнение пропущенных сэмплов тишиной : ДаУдаление блоков с тишиной в начале и конце : НетПри вычислениях CRC использовались нулевые сэмплы : ДаИнтерфейс : Встроенный Win32-интерфейс для Win NT/2000
Выходной формат : Пользовательский кодировщикВыбранный битрейт : 128 kBit/sКачество : ВысокийДобавление ID3-тега : НетУтилита сжатия : C:\flac-1.3.1-win\win64\flac.exeДополнительные параметры : -V -7 -T "Date=%year%" -T "Genre=%genre%" %source%
TOC извлечённого CD
Трек | Старт | Длительность | Начальный сектор | Конечный сектор --------------------------------------------------------------------- 1 | 0:00.00 | 4:55.45 | 0 | 22169 2 | 4:55.45 | 2:44.48 | 22170 | 34517 3 | 7:40.18 | 4:11.06 | 34518 | 53348 4 | 11:51.24 | 0:42.17 | 53349 | 56515 5 | 12:33.41 | 4:33.47 | 56516 | 77037 6 | 17:07.13 | 3:52.02 | 77038 | 94439 7 | 20:59.15 | 2:08.69 | 94440 | 104108 8 | 23:08.09 | 2:44.16 | 104109 | 116424 9 | 25:52.25 | 2:24.12 | 116425 | 127236 10 | 28:16.37 | 0:36.17 | 127237 | 129953 11 | 28:52.54 | 3:22.05 | 129954 | 145108 12 | 32:14.59 | 3:52.31 | 145109 | 162539 13 | 36:07.15 | 3:48.12 | 162540 | 179651 14 | 39:55.27 | 3:14.51 | 179652 | 194252 15 | 43:10.03 | 4:04.00 | 194253 | 212552 16 | 47:14.03 | 4:26.25 | 212553 | 232527 17 | 51:40.28 | 2:48.45 | 232528 | 245172 18 | 54:28.73 | 3:22.71 | 245173 | 260393 19 | 57:51.69 | 7:37.54 | 260394 | 294722 20 | 65:29.48 | 6:50.19 | 294723 | 325491
Характеристики диапазона извлечения и сообщения об ошибках
Выбранный диапазон
Имя файла D:\CDRIPS\TarantinoHitsVol2\Various - Storm Tarantino Hits (Tarantino Hits Vol2).wav
Подозрительная позиция 1:12:19
Пиковый уровень 99.9 % Скорость извлечения 2.4 X Качество диапазона 99.9 % CRC копии 9788D2B9 Копирование завершено
Были ошибки
AccurateRip: сводка
Трек 1 отсутствует в базе данныхТрек 2 отсутствует в базе данныхТрек 3 отсутствует в базе данныхТрек 4 отсутствует в базе данныхТрек 5 отсутствует в базе данныхТрек 6 отсутствует в базе данныхТрек 7 отсутствует в базе данныхТрек 8 отсутствует в базе данныхТрек 9 отсутствует в базе данныхТрек 10 отсутствует в базе данныхТрек 11 отсутствует в базе данныхТрек 12 отсутствует в базе данныхТрек 13 отсутствует в базе данныхТрек 14 отсутствует в базе данныхТрек 15 отсутствует в базе данныхТрек 16 отсутствует в базе данныхТрек 17 отсутствует в базе данныхТрек 18 отсутствует в базе данныхТрек 19 отсутствует в базе данныхТрек 20 отсутствует в базе данных
Ни одного трека нет в базе AccurateRip
Конец отчёта
==== Контрольная сумма отчёта B88358E509E9907D239F8459BCE8ABF19FA730ABD8CEC69F79EBF53970FC34E8 ====

Содержание индексной карты (.CUE)

REM GENRE miscREM DATE 2003REM DISCID 2810F314REM COMMENT "ExactAudioCopy v1.1"PERFORMER "Various"TITLE "Storm Tarantino Hits (Tarantino Hits Vol2)"FILE "Various - Storm Tarantino Hits (Tarantino Hits Vol2).flac" WAVE TRACK 01 AUDIO TITLE "She's Just Killing Me" PERFORMER "ZZ Top" INDEX 01 00:00:00 TRACK 02 AUDIO TITLE "Run Through The Jungle" PERFORMER "Creedence" INDEX 01 04:55:45 TRACK 03 AUDIO TITLE "Marry Had A Little Lamb" PERFORMER "Stevie Ray Vanghan" INDEX 01 07:40:18 TRACK 04 AUDIO TITLE "Chet's Speech" PERFORMER "Pussy Lovers" INDEX 01 11:51:24 TRACK 05 AUDIO TITLE "Whillie The Wimp" PERFORMER "Stevie Ray Vanghan" INDEX 01 12:33:41 TRACK 06 AUDIO TITLE "A Girl Like You" PERFORMER "Edwyn Collins" INDEX 01 17:07:13 TRACK 07 AUDIO TITLE "Wipeout" PERFORMER "Surfaris" INDEX 01 20:59:15 TRACK 08 AUDIO TITLE "You Are The One That I Want" PERFORMER "John Travolta & Olivia Newton John" INDEX 01 23:08:09 TRACK 09 AUDIO TITLE "Del Shannon" PERFORMER "Runaway" INDEX 01 25:52:25 TRACK 10 AUDIO TITLE "Royale With Cheese" PERFORMER "Travolta & Samuel L. Jackson" INDEX 01 28:16:37 TRACK 11 AUDIO TITLE "Jackie's Theme" PERFORMER "James Taylor Quartet" INDEX 01 28:52:54 TRACK 12 AUDIO TITLE "Just An Illusion" PERFORMER "The Imagination" INDEX 01 32:14:59 TRACK 13 AUDIO TITLE "Across 110th Street" PERFORMER "Bobbie Womack" INDEX 01 36:07:15 TRACK 14 AUDIO TITLE "Let's Stay Together" PERFORMER "Al Green" INDEX 01 39:55:27 TRACK 15 AUDIO TITLE "Six Blade Knife" PERFORMER "Dire Straits" INDEX 01 43:10:03 TRACK 16 AUDIO TITLE "Come And Die" PERFORMER "Therapy? & Fatal" INDEX 01 47:14:03 TRACK 17 AUDIO TITLE "Shitlist" PERFORMER "L7" INDEX 01 51:40:28 TRACK 18 AUDIO TITLE "Monte Carlo Nights" PERFORMER "Eliot Easton's Tiki Gods" INDEX 01 54:28:73 TRACK 19 AUDIO TITLE "Waiting For The Miracle" PERFORMER "Leonard Cohen" INDEX 01 57:51:69 TRACK 20 AUDIO TITLE "Riders On The Storm" PERFORMER "The Doors" INDEX 01 65:29:48

Скриншот спектра частот

[teatrix.ru].t11006.torrent 
Торрент: Зарегистрирован [ 2015-12-07 05:05 ] · 8414B070222023C8DDCA74FBDB107036441C9DBA

Скачать .torrent

Скачать

21 KB

Статус: проверено
Скачан: 0 раз
Размер: 505 MB
terms.php



Быстрый ответ

Имя:

      
Для отправки сообщений необходимо включить JavaScript
Показать сообщения:    

Текущее время: 11-Дек 03:20

Часовой пояс: UTC + 3


Вы можете начинать темы
Вы можете отвечать на сообщения
Вы не можете редактировать свои сообщения
Вы не можете удалять свои сообщения
Вы не можете голосовать в опросах
Вы не можете прикреплять файлы к сообщениям
Вы можете скачивать файлы