(Score / Soundtrack) Джули и Джулия: Готовим счастье по рецепту / Julie & Julia (by Alexandre Desplat) - 2009, FLAC (tracks+.cue), lossless


Статистика раздачи [Обновить пиров]
Размер:  226 MB   |    Зарегистрирован:  1 год   |    Скачан:  0 раз

Полного источника не было: Никогда

Личеров:  2  [  0 KB/s  ]   Подробная статистика пиров
 
   
 
 
 

[Цитировать]

Джули и Джулия: Готовим счастье по рецепту / Julie & Julia-Жанр: Score / Soundtrack
Композитор: Alexandre Desplat
Год выпуска диска: 2009
Производитель диска: CD-R by Amazon.com
Издатель (лейбл): Sony
Номер по каталогу: no label-Аудиокодек: FLAC (*.flac)
Тип рипа: tracks+.cue
Битрейт аудио: lossless
Продолжительность: 00:43:36
Источник: what.cd / schism
Наличие сканов в содержимом раздачи: да

Треклист

1. Julia's Theme (02:13)
2. Julie's Theme (02:24)
3. Great Big Good Fairy (00:38)
4. The Original French Chef Theme (00:23)
5. Starting Out (02:45)
6. What Should I Do? (01:34)
7. Eggs (01:10)
8. Psycho Killer (04:22)
performed by Talking Heads
9. A String of Pearls (01:28)
10. Mes emmerdes (03:08)
performed by Charles Aznavour
11. Time after Time (Instrumental) (02:06)
12. Burning the Stew (00:57)
13. Leaving Paris (01:36)
14. My Husband Left Me (01:29)
15. Stop the Train (03:01)
performed by Henry Wolfe
16. A Bushel and a Peck (02:49)
performed by Doris Day
17. The New York Times (02:38)
18. Boeuf Bourguignon (01:54)
19. Julia Hates Me (02:18)
20. Last Supper (01:17)
21. Time after Time (03:14)
performed by Margaret Whiting

Лог создания рипа

Exact Audio Copy V0.99 prebeta 5 from 4. May 2009
EAC extraction logfile from 22. October 2010, 18:47
Alexandre Desplat / Julie & Julia [Original Motion Picture Soundtrack]
Used drive : _NEC DVD_RW ND-3550A Adapter: 0 ID: 1
Read mode : SecureUtilize accurate stream : YesDefeat audio cache : YesMake use of C2 pointers : No
Read offset correction : 48Overread into Lead-In and Lead-Out : NoFill up missing offset samples with silence : YesDelete leading and trailing silent blocks : NoNull samples used in CRC calculations : YesUsed interface : Native Win32 interface for Win NT & 2000Gap handling : Appended to previous track
Used output format : User Defined EncoderSelected bitrate : 1024 kBit/sQuality : HighAdd ID3 tag : NoCommand line compressor : C:\Program Files (x86)\Exact Audio Copy\flac.exeAdditional command line options : -V -8 -T "artist=%a" -T "title=%t" -T "album=%g" -T "date=%y" -T "tracknumber=%n" -T "genre=%m" %s
TOC of the extracted CD
Track | Start | Length | Start sector | End sector --------------------------------------------------------- 1 | 0:00.00 | 2:13.64 | 0 | 10038 2 | 2:13.64 | 2:24.12 | 10039 | 20850 3 | 4:38.01 | 0:38.27 | 20851 | 23727 4 | 5:16.28 | 0:23.68 | 23728 | 25520 5 | 5:40.21 | 2:45.31 | 25521 | 37926 6 | 8:25.52 | 1:34.55 | 37927 | 45031 7 | 10:00.32 | 1:10.18 | 45032 | 50299 8 | 11:10.50 | 4:22.12 | 50300 | 69961 9 | 15:32.62 | 1:28.17 | 69962 | 76578 10 | 17:01.04 | 3:08.63 | 76579 | 90741 11 | 20:09.67 | 2:06.24 | 90742 | 100215 12 | 22:16.16 | 0:57.71 | 100216 | 104561 13 | 23:14.12 | 1:36.43 | 104562 | 111804 14 | 24:50.55 | 1:29.59 | 111805 | 118538 15 | 26:20.39 | 3:01.57 | 118539 | 132170 16 | 29:22.21 | 2:49.64 | 132171 | 144909 17 | 32:12.10 | 2:38.60 | 144910 | 156819 18 | 34:50.70 | 1:54.64 | 156820 | 165433 19 | 36:45.59 | 2:18.37 | 165434 | 175820 20 | 39:04.21 | 1:17.47 | 175821 | 181642 21 | 40:21.68 | 3:14.00 | 181643 | 196192
Track 1
Filename C:\Rips\Alexandre Desplat - 2009 - Julie & Julia [Original Motion Picture Soundtrack]\01 - Julia's Theme.wav
Pre-gap length 0:00:02.00
Peak level 94.4 % Track quality 100.0 % Test CRC 9E466DFE Copy CRC 9E466DFE Accurately ripped (confidence 2) [D1CB440D] Copy OK
Track 2
Filename C:\Rips\Alexandre Desplat - 2009 - Julie & Julia [Original Motion Picture Soundtrack]\02 - Julie's Theme.wav
Peak level 94.4 % Track quality 100.0 % Test CRC 0453C2E1 Copy CRC 0453C2E1 Accurately ripped (confidence 2) [C9BCB9F4] Copy OK
Track 3
Filename C:\Rips\Alexandre Desplat - 2009 - Julie & Julia [Original Motion Picture Soundtrack]\03 - Great Big Good Fairy.wav
Peak level 72.6 % Track quality 100.0 % Test CRC 72D7464C Copy CRC 72D7464C Accurately ripped (confidence 2) [328E5250] Copy OK
Track 4
Filename C:\Rips\Alexandre Desplat - 2009 - Julie & Julia [Original Motion Picture Soundtrack]\04 - The Original French Chef Theme.wav
Peak level 76.6 % Track quality 99.5 % Test CRC 5925D9FD Copy CRC 5925D9FD Accurately ripped (confidence 2) [78FC702F] Copy OK
Track 5
Filename C:\Rips\Alexandre Desplat - 2009 - Julie & Julia [Original Motion Picture Soundtrack]\05 - Starting Out.wav
Peak level 94.4 % Track quality 100.0 % Test CRC 0846A70D Copy CRC 0846A70D Accurately ripped (confidence 2) [B7757092] Copy OK
Track 6
Filename C:\Rips\Alexandre Desplat - 2009 - Julie & Julia [Original Motion Picture Soundtrack]\06 - What Should I Do .wav
Peak level 53.8 % Track quality 100.0 % Test CRC 08F67835 Copy CRC 08F67835 Accurately ripped (confidence 2) [3FC69BEC] Copy OK
Track 7
Filename C:\Rips\Alexandre Desplat - 2009 - Julie & Julia [Original Motion Picture Soundtrack]\07 - Eggs.wav
Peak level 94.4 % Track quality 100.0 % Test CRC C20C37E3 Copy CRC C20C37E3 Accurately ripped (confidence 2) [12283DFB] Copy OK
Track 8
Filename C:\Rips\Alexandre Desplat - 2009 - Julie & Julia [Original Motion Picture Soundtrack]\08 - Psycho Killer.wav
Peak level 67.3 % Track quality 100.0 % Test CRC 1C227279 Copy CRC 1C227279 Accurately ripped (confidence 2) [C3F319C9] Copy OK
Track 9
Filename C:\Rips\Alexandre Desplat - 2009 - Julie & Julia [Original Motion Picture Soundtrack]\09 - A String Of Pearls.wav
Peak level 74.5 % Track quality 100.0 % Test CRC EA218FE8 Copy CRC EA218FE8 Accurately ripped (confidence 2) [D012C2DA] Copy OK
Track 10
Filename C:\Rips\Alexandre Desplat - 2009 - Julie & Julia [Original Motion Picture Soundtrack]\10 - Mes Emmerdes.wav
Peak level 67.8 % Track quality 100.0 % Test CRC 6E93B61E Copy CRC 6E93B61E Accurately ripped (confidence 2) [A4A9FF2A] Copy OK
Track 11
Filename C:\Rips\Alexandre Desplat - 2009 - Julie & Julia [Original Motion Picture Soundtrack]\11 - Time After Time (Instrumental).wav
Peak level 94.4 % Track quality 100.0 % Test CRC A0583E95 Copy CRC A0583E95 Accurately ripped (confidence 2) [16D18543] Copy OK
Track 12
Filename C:\Rips\Alexandre Desplat - 2009 - Julie & Julia [Original Motion Picture Soundtrack]\12 - Burning The Stew.wav
Peak level 62.5 % Track quality 100.0 % Test CRC 695EE17D Copy CRC 695EE17D Accurately ripped (confidence 2) [D4BD81A4] Copy OK
Track 13
Filename C:\Rips\Alexandre Desplat - 2009 - Julie & Julia [Original Motion Picture Soundtrack]\13 - Leaving Paris.wav
Peak level 94.4 % Track quality 100.0 % Test CRC BC355EC0 Copy CRC BC355EC0 Accurately ripped (confidence 2) [0FB6EC47] Copy OK
Track 14
Filename C:\Rips\Alexandre Desplat - 2009 - Julie & Julia [Original Motion Picture Soundtrack]\14 - My Husband Left Me.wav
Peak level 79.9 % Track quality 100.0 % Test CRC 6F58B48E Copy CRC 6F58B48E Accurately ripped (confidence 2) [9B8FB751] Copy OK
Track 15
Filename C:\Rips\Alexandre Desplat - 2009 - Julie & Julia [Original Motion Picture Soundtrack]\15 - Stop The Train.wav
Peak level 38.4 % Track quality 100.0 % Test CRC A6CDC088 Copy CRC A6CDC088 Accurately ripped (confidence 2) [45F5FE8F] Copy OK
Track 16
Filename C:\Rips\Alexandre Desplat - 2009 - Julie & Julia [Original Motion Picture Soundtrack]\16 - A Bushel And A Peck.wav
Peak level 54.8 % Track quality 100.0 % Test CRC F6E0468A Copy CRC F6E0468A Accurately ripped (confidence 2) [3C4B6293] Copy OK
Track 17
Filename C:\Rips\Alexandre Desplat - 2009 - Julie & Julia [Original Motion Picture Soundtrack]\17 - The New York Times.wav
Peak level 99.2 % Track quality 100.0 % Test CRC 4A7B4241 Copy CRC 4A7B4241 Accurately ripped (confidence 2) [EC4BAF14] Copy OK
Track 18
Filename C:\Rips\Alexandre Desplat - 2009 - Julie & Julia [Original Motion Picture Soundtrack]\18 - Bouef Bourguignon.wav
Peak level 94.4 % Track quality 100.0 % Test CRC B83344F2 Copy CRC B83344F2 Accurately ripped (confidence 2) [E956E422] Copy OK
Track 19
Filename C:\Rips\Alexandre Desplat - 2009 - Julie & Julia [Original Motion Picture Soundtrack]\19 - Julia Hates Me.wav
Peak level 90.5 % Track quality 99.9 % Test CRC E438D496 Copy CRC E438D496 Accurately ripped (confidence 2) [AED9402E] Copy OK
Track 20
Filename C:\Rips\Alexandre Desplat - 2009 - Julie & Julia [Original Motion Picture Soundtrack]\20 - Last Supper.wav
Peak level 94.4 % Track quality 100.0 % Test CRC A2A7178D Copy CRC A2A7178D Accurately ripped (confidence 2) [81AB45FC] Copy OK
Track 21
Filename C:\Rips\Alexandre Desplat - 2009 - Julie & Julia [Original Motion Picture Soundtrack]\21 - Time After Time.wav
Peak level 50.6 % Track quality 100.0 % Test CRC 7C6F3549 Copy CRC 7C6F3549 Accurately ripped (confidence 2) [ACB5770D] Copy OK
All tracks accurately ripped
No errors occurred
End of status report

Содержание индексной карты (.CUE)

REM GENRE SoundtrackREM DATE 2009REM DISCID 000A3715REM COMMENT "ExactAudioCopy v0.99pb5"PERFORMER "Alexandre Desplat"TITLE "Julie & Julia [Original Motion Picture Soundtrack]"FILE "01 - Julia's Theme.wav" WAVE TRACK 01 AUDIO TITLE "Julia's Theme" PERFORMER "Alexandre Desplat" INDEX 01 00:00:00FILE "02 - Julie's Theme.wav" WAVE TRACK 02 AUDIO TITLE "Julie's Theme" PERFORMER "Alexandre Desplat" INDEX 01 00:00:00FILE "03 - Great Big Good Fairy.wav" WAVE TRACK 03 AUDIO TITLE "Great Big Good Fairy" PERFORMER "Alexandre Desplat" INDEX 01 00:00:00FILE "04 - The Original French Chef Theme.wav" WAVE TRACK 04 AUDIO TITLE "The Original French Chef Theme" PERFORMER "Alexandre Desplat" INDEX 01 00:00:00FILE "05 - Starting Out.wav" WAVE TRACK 05 AUDIO TITLE "Starting Out" PERFORMER "Alexandre Desplat" INDEX 01 00:00:00FILE "06 - What Should I Do .wav" WAVE TRACK 06 AUDIO TITLE "What Should I Do?" PERFORMER "Alexandre Desplat" INDEX 01 00:00:00FILE "07 - Eggs.wav" WAVE TRACK 07 AUDIO TITLE "Eggs" PERFORMER "Alexandre Desplat" INDEX 01 00:00:00FILE "08 - Psycho Killer.wav" WAVE TRACK 08 AUDIO TITLE "Psycho Killer" PERFORMER "Alexandre Desplat" INDEX 01 00:00:00FILE "09 - A String Of Pearls.wav" WAVE TRACK 09 AUDIO TITLE "A String Of Pearls" PERFORMER "Alexandre Desplat" INDEX 01 00:00:00FILE "10 - Mes Emmerdes.wav" WAVE TRACK 10 AUDIO TITLE "Mes Emmerdes" PERFORMER "Alexandre Desplat" INDEX 01 00:00:00FILE "11 - Time After Time (Instrumental).wav" WAVE TRACK 11 AUDIO TITLE "Time After Time (Instrumental)" PERFORMER "Alexandre Desplat" INDEX 01 00:00:00FILE "12 - Burning The Stew.wav" WAVE TRACK 12 AUDIO TITLE "Burning The Stew " PERFORMER "Alexandre Desplat" INDEX 01 00:00:00FILE "13 - Leaving Paris.wav" WAVE TRACK 13 AUDIO TITLE "Leaving Paris" PERFORMER "Alexandre Desplat" INDEX 01 00:00:00FILE "14 - My Husband Left Me.wav" WAVE TRACK 14 AUDIO TITLE "My Husband Left Me" PERFORMER "Alexandre Desplat" INDEX 01 00:00:00FILE "15 - Stop The Train.wav" WAVE TRACK 15 AUDIO TITLE "Stop The Train" PERFORMER "Alexandre Desplat" INDEX 01 00:00:00FILE "16 - A Bushel And A Peck.wav" WAVE TRACK 16 AUDIO TITLE "A Bushel And A Peck" PERFORMER "Alexandre Desplat" INDEX 01 00:00:00FILE "17 - The New York Times.wav" WAVE TRACK 17 AUDIO TITLE "The New York Times" PERFORMER "Alexandre Desplat" INDEX 01 00:00:00FILE "18 - Bouef Bourguignon.wav" WAVE TRACK 18 AUDIO TITLE "Bouef Bourguignon" PERFORMER "Alexandre Desplat" INDEX 01 00:00:00FILE "19 - Julia Hates Me.wav" WAVE TRACK 19 AUDIO TITLE "Julia Hates Me" PERFORMER "Alexandre Desplat" INDEX 01 00:00:00FILE "20 - Last Supper.wav" WAVE TRACK 20 AUDIO TITLE "Last Supper" PERFORMER "Alexandre Desplat" INDEX 01 00:00:00FILE "21 - Time After Time.wav" WAVE TRACK 21 AUDIO TITLE "Time After Time" PERFORMER "Alexandre Desplat" INDEX 01 00:00:00
[teatrix.ru].t11009.torrent 
Торрент: Зарегистрирован [ 2015-12-07 05:05 ] · F3867A4E97B5638136272971BFD562962FA09D7F

Скачать .torrent

Скачать

20 KB

Статус: проверено
Скачан: 0 раз
Размер: 226 MB
terms.php



Быстрый ответ

Имя:

      
Для отправки сообщений необходимо включить JavaScript
Показать сообщения:    

Текущее время: 08-Дек 01:20

Часовой пояс: UTC + 3


Вы можете начинать темы
Вы можете отвечать на сообщения
Вы не можете редактировать свои сообщения
Вы не можете удалять свои сообщения
Вы не можете голосовать в опросах
Вы не можете прикреплять файлы к сообщениям
Вы можете скачивать файлы