Jorjet Alcocer: ChaCha Shine Review [2009, ChaCha, DVDRip, ENG] (Видеоурок)

DL-List and Torrent activity [Update пиров]
Size:  638 MB   |    Registered:  10 months 19 days   |    Completed:  0 times

Seeder not seen: Never

Leechers:  2  [  0 KB/s  ]   Show peers in full details


Jorjet Alcocer: ChaCha Shine Review
Страна: USA
Тематика: ChaCha
Тип раздаваемого материала: Видеоурок
Продолжительность: 00:37:26
Год выпуска: 2009
Язык: Английский
Перевод: Отсутствует
Язык субтитров: Отсутствует
Описание: Трой Энтони (Troy Anthony) вместе с Жоржет Алкосер (Jorjet Alcocer) из Latin Motions, New Orleans - известны созданием "креольского стиля сальсы" (поровну микс сальсы ЛА/НЙ с присутствием кубинской). Они выступали и обучали на многих мероприятиях по всему свету. Трой в равной степени последователь в ведение и следовании На1 и На2 и использует эту возможность ведения и следования в своей структуре обучения.


Fwd & Back Combo
Side Crosses
Side 1/2 & 1/2
Lt & Rt Turn
Half Rt-Half Lt
Half Lt-Hook Rt
Leg Trap
Hook Step
Suzy Q
2-3 Clap
Toe Heel
Crossover Suzy
Dbl Flick Braid
Dbl Flick Crossover
Fwd Cut Aways
Rock Away
Angled Shuffles
Crossover Flares
1&2 Half Lt & Rt
Sixty Eight
Angled Grapevine
Soul Slide
Rock & Roll
Back Cut Aways
Adj Tabara
Grapevine Combo
Cut Away G-V Slide
David's Dance


by fabio SalsaIsGood Date Added: Wednesday 11 August, 2010
With exactly the same format as their Review of Shines On2, Jorjet and Troy compile for us a list of 'standard' or 'must know' Cha Cha Cha shines. The 'Review' term in the DVD title means that each shine is shown to counting a few times and then with styling, but not broken down step by step. Still you can see all steps and styling clearly thanks to the suitable camera position. All you are left to do is to use to remote control to learn them. Jorjet is very good at demonstrating, as usual, and Troy provides some useful hints from the background. A must have.
Fabio from SalsaIsGood
Rating: [5 of 5 Stars!]
Качество : DVDRip
Формат: AVI
Видео кодек: XviD
Аудио кодек: MP3
Видео: 640x480 (1.33:1), 29.970 fps, XviD Lavf51.12.1~2 641 kbps avg, 0.272 bit/pixel
Аудио: 44.1 kHz, MPEG Layer 3, 2 ch, ~128.00 kbps Constant

Отчет MediaInfo

Complete name : ChaCha\Cha Cha Shines Review with Jorjet Alcoser\Cha Cha Shines Review with Jorjet Alcoser.avi
Format : AVI
Format/Info : Audio Video Interleave
File size : 638 MiB
Duration : 33mn 48s
Overall bit rate : 2 641 Kbps
Writing application : Lavf51.12.1
ID : 0
Format : xvid
Codec ID : xvid
Duration : 33mn 48s
Bit rate : 2 500 Kbps
Width : 640 pixels
Height : 480 pixels
Display aspect ratio : 4:3
Frame rate : 29.970 fps
Bits/(Pixel*Frame) : 0.272
Stream size : 604 MiB (95%)
ID : 1
Format : MPEG Audio
Format version : Version 1
Format profile : Layer 3
Mode : Joint stereo
Mode extension : MS Stereo
Codec ID : 55
Codec ID/Hint : MP3
Duration : 33mn 47s
Bit rate mode : Constant
Bit rate : 128 Kbps
Channel(s) : 2 channels
Sampling rate : 44.1 KHz
Stream size : 30.9 MiB (5%)
Alignment : Aligned on interleaves
Interleave, duration : 26 ms (0.78 video frame)
Writing library : LAME3.97ЄЄЄЄЄЄї‡ИР



Torrent: Registered [ 2015-12-07 05:05 ] · 010D8851D3E4709405F379A6D7E65A674E2D396B

Download .torrent


13 KB

Status: checked
Completed: 0 times
Size: 638 MB

Quick Reply


Heads necessary to send messages to enable JavaScript
Display posts:    

Current time is: 26-Oct 20:12

All times are UTC + 3

You can post new topics in this forum
You can reply to topics in this forum
You cannot edit your posts in this forum
You cannot delete your posts in this forum
You cannot vote in polls in this forum
You cannot attach files in this forum
You can download files in this forum