Тони Лара - Бачата Танго 1, 2 часть / Tony Lara - Bachata Tango vol. 1, 2 [2008, Бачата Танго, DVDRip, ENG] (Видеоурок)


Статистика раздачи [Обновить пиров]
Размер:  744 MB   |    Зарегистрирован:  11 месяцев   |    Скачан:  0 раз

Полного источника не было: Никогда

Личеров:  3  [  0 KB/s  ]   Подробная статистика пиров
 
   
 
 
 

[Цитировать]

Тони Лара - Бачата Танго 1, 2 часть / Tony Lara - Bachata Tango vol. 1, 2 Страна: Италия
Тематика: Бачата Танго
Тип раздаваемого материала: Видеоурок
Продолжительность: 00:58:39, 00:57:15
Год выпуска: 2008
Язык: Английский
Перевод: Отсутствует
DVD5:
Bachata Tango vol.3
Описание: Возьмите Ритм, Чувственность и Сексуальность бачаты сплавьте с Мелодией, Изяществом и страстью Аргентинского Танго и вы получите взрывную комбинацию, которую хорошо танцевать и чудесно смотреть!
Качество : DVDRip
Формат: AVI
Видео кодек: XviD
Аудио кодек: MP3
Видео: 640x480 (1.33:1), 25 fps, XviD build 50 ~749 kbps avg, 0.10 bit/pixel
Аудио: 48 kHz, MPEG Layer 3, 2 ch, ~128.00 kbps avg
Видео: 640x480 (1.33:1), 25 fps, XviD build 50 ~770 kbps avg, 0.10 bit/pixel
Аудио: 48 kHz, MPEG Layer 3, 2 ch, ~128.00 kbps avg

Описание

Bachata Tango vol. 1
Тони Лара и Дани - всемирно самые любимые пара в Бачате; на этом видео они научат вас:
- Rock Step
- Inverted Step
- Rock Steps with Variations
- Slow Ochos
а также как добавить декораций, так, чтобы ваше танцевание было более игривым и сексуальным! Все это и многое, многое другое!
Этот видео подходит для уровня улучшающих танцевание танцоров Бачата.
Bachata Tango vol. 2
Тони Лара и Дани - всемирно самые любимые пара в Бачате; на этом видео они научат вас:
- Passionate Circle Step
- Open Circle Steps
- Forward Ochos
- Reverse Ochos
- Exiting and Passionate Turn Patterns
Этот видео подходит для среднего уровня танцоров Бачата.

Отчет MediaInfo

General
Complete name : E:\Tony_Lara_Bachata_Tango\Tony Lara - Bachata Tango v1.avi
Format : AVI
Format/Info : Audio Video Interleave
File size : 372 MiB
Duration : 58mn 39s
Overall bit rate : 888 Kbps
Writing application : VirtualDubMod 1.5.10.2 (build 2540/release)
Writing library : VirtualDubMod build 2540/release
Video
ID : 0
Format : MPEG-4 Visual
Format profile : Advanced Simple@L5
Format settings, BVOP : Yes
Format settings, QPel : No
Format settings, GMC : No warppoints
Format settings, Matrix : Default (MPEG)
Codec ID : XVID
Codec ID/Hint : XviD
Duration : 58mn 39s
Bit rate : 750 Kbps
Width : 640 pixels
Height : 480 pixels
Display aspect ratio : 4:3
Frame rate : 25.000 fps
Resolution : 8 bits
Colorimetry : 4:2:0
Scan type : Progressive
Bits/(Pixel*Frame) : 0.098
Stream size : 315 MiB (84%)
Writing library : XviD 1.2.1 (UTC 2008-12-04)
Audio
ID : 1
Format : MPEG Audio
Format version : Version 1
Format profile : Layer 3
Codec ID : 55
Codec ID/Hint : MP3
Duration : 58mn 39s
Bit rate mode : Constant
Bit rate : 128 Kbps
Channel(s) : 2 channels
Sampling rate : 48.0 KHz
Stream size : 53.7 MiB (14%)
Alignment : Aligned on interleaves
Interleave, duration : 40 ms (1.00 video frame)
Interleave, preload duration : 504 ms
Writing library : LAME3.98r
Encoding settings : -m s -V 4 -q 2 -lowpass 17 -b 128--General
Complete name : E:\Tony_Lara_Bachata_Tango\Tony Lara - Bachata Tango v2.avi
Format : AVI
Format/Info : Audio Video Interleave
File size : 372 MiB
Duration : 57mn 15s
Overall bit rate : 908 Kbps
Writing application : VirtualDubMod 1.5.10.2 (build 2540/release)
Writing library : VirtualDubMod build 2540/release
Video
ID : 0
Format : MPEG-4 Visual
Format profile : Advanced Simple@L5
Format settings, BVOP : Yes
Format settings, QPel : No
Format settings, GMC : No warppoints
Format settings, Matrix : Default (MPEG)
Codec ID : XVID
Codec ID/Hint : XviD
Duration : 57mn 15s
Bit rate : 771 Kbps
Width : 640 pixels
Height : 480 pixels
Display aspect ratio : 4:3
Frame rate : 25.000 fps
Resolution : 8 bits
Colorimetry : 4:2:0
Scan type : Progressive
Bits/(Pixel*Frame) : 0.100
Stream size : 316 MiB (85%)
Writing library : XviD 1.2.1 (UTC 2008-12-04)
Audio
ID : 1
Format : MPEG Audio
Format version : Version 1
Format profile : Layer 3
Codec ID : 55
Codec ID/Hint : MP3
Duration : 57mn 15s
Bit rate mode : Constant
Bit rate : 128 Kbps
Channel(s) : 2 channels
Sampling rate : 48.0 KHz
Stream size : 52.4 MiB (14%)
Alignment : Aligned on interleaves
Interleave, duration : 40 ms (1.00 video frame)
Interleave, preload duration : 504 ms
Writing library : LAME3.98r
Encoding settings : -m s -V 4 -q 2 -lowpass 17 -b 128

Скриншоты

Bachata Tango vol. 1


Bachata Tango vol. 2

Скринлисты

[teatrix.ru].t11027.torrent 
Торрент: Зарегистрирован [ 2015-12-07 05:05 ] · 1E84421FE9A8B6C337C96AA203F3D9D1D7A47C5E

Скачать .torrent

Скачать

15 KB

Статус: проверено
Скачан: 0 раз
Размер: 744 MB
terms.php



Быстрый ответ

Имя:

      
Для отправки сообщений необходимо включить JavaScript
Показать сообщения:    

Текущее время: 04-Дек 11:11

Часовой пояс: UTC + 3


Вы можете начинать темы
Вы можете отвечать на сообщения
Вы не можете редактировать свои сообщения
Вы не можете удалять свои сообщения
Вы не можете голосовать в опросах
Вы не можете прикреплять файлы к сообщениям
Вы можете скачивать файлы