Salsa a la Cubana - Instructional Video 3 [Обучающее видео. Cuban-Style Casino, DVDRip, ENG] (Видеоурок)


Статистика раздачи [Обновить пиров]
Размер:  527 MB   |    Зарегистрирован:  11 месяцев   |    Скачан:  0 раз

Полного источника не было: Никогда

Личеров:  2  [  0 KB/s  ]   Подробная статистика пиров
 
   
 
 
 

[Цитировать]

Salsa a la Cubana - Instructional Video 3
Страна: Cuba
Тематика: Обучающее видео. Cuban-Style Casino
Тип раздаваемого материала: Видеоурок
Продолжительность: 53:36
Язык: Английский
Перевод: Отсутствует
Описание: Advanced Moves in Cuban-Style Casino Salsa Dancing." This DVD video contains many unique, interesting and challenging figures. The result is a total of 31 moves carefully shown so as to make it easy to learn. A few of the combinations are at the intermediate level, but most of them are advanced-level Cuban Casino moves.
Each move is shown twice, from different camera angles, dancing to up-tempo salsa music. Then, each move is broken down by verbally counting, "1,2,3,.,5,6,7." For some moves, we go further and explain a few key points about the move (how to lead it, footwork, etc.)
All of the dance steps shown are leadable and followable -- they are not choreographed. This means, that once you and your partner are familiar with the moves, they can be lead without any notice other than a good lead.
Here is a summary of what the video contains:
58 minutes in length
31 moves: (click here for the complete list of these moves)
14 moves from Norberto & Yalenis
6 moves from Ibert & Rosa
11 moves from Yanek & Madeleine
3 demos (one from each of the instructors)
short clips of dancing in clubs and in the street
highlight clips
Качество : DVDRip
Формат: MPG
Видео кодек: MPEG1
Аудио кодек: MP2
Видео : 352 x 288 (4:3) 1150 Kbps, 25.000 fps
Аудио : (Microsoft MPEG-1 layer 1, 2) 44100 Гц, Dual Channel, 192 Kbps

Отчет MediaInfo

General
Complete name : F:\Salsa a la Cubana - Instructional Video 3.mpg
Format : MPEG-PS
File size : 527 MiB
Duration : 53mn 36s
Overall bit rate : 1 376 Kbps
Video
ID : 224 (0xE0)
Format : MPEG Video
Format version : Version 1
Format settings, BVOP : Yes
Format settings, Matrix : Default
Duration : 53mn 36s
Bit rate mode : Variable
Bit rate : 1 150 Kbps
Width : 352 pixels
Height : 288 pixels
Display aspect ratio : 4:3
Frame rate : 25.000 fps
Standard : PAL
Color space : YUV
Bit depth : 8 bits
Scan type : Progressive
Compression mode : Lossy
Bits/(Pixel*Frame) : 0.454
Stream size : 443 MiB (84%)
Audio
ID : 192 (0xC0)
Format : MPEG Audio
Format version : Version 1
Format profile : Layer 2
Duration : 53mn 36s
Bit rate mode : Constant
Bit rate : 192 Kbps
Channel(s) : 2 channels
Sampling rate : 44.1 KHz
Compression mode : Lossy
Delay relative to video : -446ms
Stream size : 73.6 MiB (14%)

Скриншоты


[teatrix.ru].t11028.torrent 
Торрент: Зарегистрирован [ 2015-12-07 05:05 ] · 43FCFCF830289B2FA10D3CE9805C5B5743CB02CA

Скачать .torrent

Скачать

11 KB

Статус: проверено
Скачан: 0 раз
Размер: 527 MB
terms.php



Быстрый ответ

Имя:

      
Для отправки сообщений необходимо включить JavaScript
Показать сообщения:    

Текущее время: 07-Дек 00:54

Часовой пояс: UTC + 3


Вы можете начинать темы
Вы можете отвечать на сообщения
Вы не можете редактировать свои сообщения
Вы не можете удалять свои сообщения
Вы не можете голосовать в опросах
Вы не можете прикреплять файлы к сообщениям
Вы можете скачивать файлы