Salsa a la Cubana - Instructional Video 3 [Обучающее видео. Cuban-Style Casino, DVDRip, ENG] (Видеоурок)

DL-List and Torrent activity [Update пиров]
Size:  527 MB   |    Registered:  10 months 18 days   |    Completed:  0 times

Seeder not seen: Never

Leechers:  2  [  0 KB/s  ]   Show peers in full details


Salsa a la Cubana - Instructional Video 3
Страна: Cuba
Тематика: Обучающее видео. Cuban-Style Casino
Тип раздаваемого материала: Видеоурок
Продолжительность: 53:36
Язык: Английский
Перевод: Отсутствует
Описание: Advanced Moves in Cuban-Style Casino Salsa Dancing." This DVD video contains many unique, interesting and challenging figures. The result is a total of 31 moves carefully shown so as to make it easy to learn. A few of the combinations are at the intermediate level, but most of them are advanced-level Cuban Casino moves.
Each move is shown twice, from different camera angles, dancing to up-tempo salsa music. Then, each move is broken down by verbally counting, "1,2,3,.,5,6,7." For some moves, we go further and explain a few key points about the move (how to lead it, footwork, etc.)
All of the dance steps shown are leadable and followable -- they are not choreographed. This means, that once you and your partner are familiar with the moves, they can be lead without any notice other than a good lead.
Here is a summary of what the video contains:
58 minutes in length
31 moves: (click here for the complete list of these moves)
14 moves from Norberto & Yalenis
6 moves from Ibert & Rosa
11 moves from Yanek & Madeleine
3 demos (one from each of the instructors)
short clips of dancing in clubs and in the street
highlight clips
Качество : DVDRip
Формат: MPG
Видео кодек: MPEG1
Аудио кодек: MP2
Видео : 352 x 288 (4:3) 1150 Kbps, 25.000 fps
Аудио : (Microsoft MPEG-1 layer 1, 2) 44100 Гц, Dual Channel, 192 Kbps

Отчет MediaInfo

Complete name : F:\Salsa a la Cubana - Instructional Video 3.mpg
Format : MPEG-PS
File size : 527 MiB
Duration : 53mn 36s
Overall bit rate : 1 376 Kbps
ID : 224 (0xE0)
Format : MPEG Video
Format version : Version 1
Format settings, BVOP : Yes
Format settings, Matrix : Default
Duration : 53mn 36s
Bit rate mode : Variable
Bit rate : 1 150 Kbps
Width : 352 pixels
Height : 288 pixels
Display aspect ratio : 4:3
Frame rate : 25.000 fps
Standard : PAL
Color space : YUV
Bit depth : 8 bits
Scan type : Progressive
Compression mode : Lossy
Bits/(Pixel*Frame) : 0.454
Stream size : 443 MiB (84%)
ID : 192 (0xC0)
Format : MPEG Audio
Format version : Version 1
Format profile : Layer 2
Duration : 53mn 36s
Bit rate mode : Constant
Bit rate : 192 Kbps
Channel(s) : 2 channels
Sampling rate : 44.1 KHz
Compression mode : Lossy
Delay relative to video : -446ms
Stream size : 73.6 MiB (14%)


Torrent: Registered [ 2015-12-07 05:05 ] · 43FCFCF830289B2FA10D3CE9805C5B5743CB02CA

Download .torrent


11 KB

Status: checked
Completed: 0 times
Size: 527 MB

Quick Reply


Heads necessary to send messages to enable JavaScript
Display posts:    

Current time is: 25-Oct 23:55

All times are UTC + 3

You can post new topics in this forum
You can reply to topics in this forum
You cannot edit your posts in this forum
You cannot delete your posts in this forum
You cannot vote in polls in this forum
You cannot attach files in this forum
You can download files in this forum