Хрустальный бал "Хрустальной Турандот". Творческий вечер Валентина Гафта (Борис Беленький, Елена Никитан) [2014 г., Бенефис, SATRip] Государственный академический театр им. Е. Вахтангова


Статистика раздачи [Обновить пиров]
Размер:  965 MB   |    Зарегистрирован:  11 месяцев   |    Скачан:  0 раз

Полного источника не было: 4 месяца 18 дней

Личеров:  7  [  0 KB/s  ]   Подробная статистика пиров
 
   
 
 
 

[Цитировать]

Хрустальный бал "Хрустальной Турандот". Творческий вечер Валентина Гафта Название театра: Государственный академический театр им. Е. Вахтангова.
Год выпуска: 2014.
Жанр: Бенефис.
Продолжительность: 01:09:37.
Режиссеры: Борис Беленький, Елена Никитан.
Герой вечера: советский и российский актёр театра и кино, народный артист РСФСР Валентин Гафт.
В роли Турандот: актриса театра им. В.Маяковского заслуженная артистка России Ольга Прокофьева.
На бал пожаловали (в телеверсии):
Елена Камбурова, Алексей Моисеенко, Владимир Тонха, Александр Ширвиндт, артисты театра "Геликон-Опера" и другие.
Описание:
"Балов в мою честь еще никто не закатывал," - признался Валентин Гафт с порога театра Вахтангова. "У меня такое не часто бывает, для меня это большая честь – в таком театре! Значит я должен никого не подвести".
Ещё в фойе Валентин Гафт шокировал: эпиграмм не будет - время не то. Программа вечера держалась в строгом секрете, даже от самого Гафта. Но эпиграммы были! И посвященные принцессе Турандот, в исполнении Ольги Прокофьевой, и многочисленным друзьям, которые не могли пропустить первый бал в честь человека, чей сарказм порой острей булавки.
Юлия Рутберг, заслуженная артистка РФ: "Он космический человек! Его выход, его личность - это и есть театр, и есть искусство!"
Из Сыктывкара на бал прилетел Алексей Моисеенко, заслуженный артист России. Он познакомился с Гафтом в Баден-Бадене, напугав своим голосом. Теперь они друзья. Гафт сравнивает его с Паваротти, а Моисеенко, не без риска, посвящает ему стихи.
Час сорок с антрактом. Тысяча человек в зале и проданные задолго до бала билеты. Такова сухая статистика вечера, посвященного Гафту. Сколько раз зал взрывался аплодисментами, подсчитать не удалось. После бала каждый мог унести с собой Гафта в переплёте.
В театре имени Вахтангова он представил новое собрание своих сочинений.

Дополнительная информация:
Страна: Россия .
Выпущено: Государственный академический театр им. Е. Вахтангова, © ГТРК "Культура".
Автор проекта, режиссер-постановщик: Борис Беленький.
Автор сценария: Вениамин Борисов
Режиссер телеверсии: Елена Никитан.
Оператор-постановщик: Владимир Иванов.

Бал состоялся 10 ноября 2014 года в 19:00 в театре им. Евг. Вахтангова.

Трансляция ГТРК "Культура" в 21:20 21.12.2014 г.

Плакат с концерта

Релиз
Рип lesik689 .
Качество видео:...SATRip
Формат:.................AVI
Видео:..720x400 (1.80:1), 25 fps, XviD MPEG-4 ~1800 kbps avg, 0.25 bit/pixel
Аудио:..48 kHz, MPEG Layer 3, 2 ch, ~128.00 kbps avg

Отчет MI

Общее
Полное имя : Hrusta'ny.bal.Hrustal'noy.Turandot.v.chest'.Valentina.Gafta.2014.XviD.SATRip.fenixclub.avi
Format : AVI
Format/Info : Audio Video Interleave
File size : 965 MiB
Duration : 1h 9mn
Overall bit rate : 1 938 Kbps
Writing application : VirtualDubMod 1.5.10.2 (build 2542/release)
Writing library : VirtualDubMod build 2542/release
Video
ID : 0
Format : MPEG-4 Visual
Format profile : Advanced Simple@L5
Format settings, BVOP : 2
Format settings, QPel : No
Format settings, GMC : No warppoints
Format settings, Matrix : Default (MPEG)
Muxing mode : Packed bitstream
Codec ID : XVID
Codec ID/Hint : XviD
Duration : 1h 9mn
Bit rate : 1 801 Kbps
Width : 720 pixels
Height : 400 pixels
Display aspect ratio : 5:4
Original display aspect ratio : 16:9
Frame rate : 25.000 fps
Color space : YUV
Chroma subsampling : 4:2:0
Bit depth : 8 bits
Scan type : Progressive
Compression mode : Lossy
Bits/(Pixel*Frame) : 0.250
Stream size : 897 MiB (93%)
Writing library : XviD 64
Audio
ID : 1
Format : MPEG Audio
Format version : Version 1
Format profile : Layer 3
Mode : Joint stereo
Mode extension : MS Stereo
Codec ID : 55
Codec ID/Hint : MP3
Duration : 1h 9mn
Bit rate mode : Constant
Bit rate : 128 Kbps
Channel(s) : 2 channels
Sampling rate : 48.0 KHz
Compression mode : Lossy
Stream size : 63.7 MiB (7%)
Alignment : Split accross interleaves
Interleave, duration : 40 ms (1.00 video frame)
Interleave, preload duration : 500 ms.

Скриншоты


Альтернативный хост


[teatrix.ru].t11056.torrent 
Торрент: Зарегистрирован [ 2015-12-07 05:05 ] · D7ECE294B02569AAD8518B32EB0F8FAA63D7E92F

Скачать .torrent

Скачать

19 KB

Статус: проверено
Скачан: 0 раз
Размер: 965 MB
terms.php



Быстрый ответ

Имя:

      
Для отправки сообщений необходимо включить JavaScript
Показать сообщения:    

Текущее время: 05-Дек 19:39

Часовой пояс: UTC + 3


Вы можете начинать темы
Вы можете отвечать на сообщения
Вы не можете редактировать свои сообщения
Вы не можете удалять свои сообщения
Вы не можете голосовать в опросах
Вы не можете прикреплять файлы к сообщениям
Вы можете скачивать файлы