Интервью на фоне спектакля. Лада или Радость (Марина Брусникина) [2014 г., Интервью, SATRip] Российский академический молодежный театр


Статистика раздачи [Обновить пиров]
Размер:  482 MB   |    Зарегистрирован:  1 год 1 месяц   |    Скачан:  0 раз

Полного источника не было: Никогда

 
   
 
 
 

[Цитировать]

Интервью на фоне спектакля. Лада или Радость Название театра: Российский академический молодежный театр
Жанр: Интервью.
Год выпуска: 2014.
Продолжительность: 00:36:47.
В интервью участвуют:
Нелли Уварова, актриса, Марина Брусникина, режиссер.
Описание:
20 ноября 2013 г. на сцене РАМТа состоялась премьера постановки Марины Брусникиной "Лада, или радость". Мастер поэтического театра Марина Брусникина на этот раз обращается к прозаическому опыту поэта-модерниста Тимура Кибирова. Впрочем, эта "хроника верной и счастливой любви" наполнена самой чистой и светлой поэзией.
Лада (в исполнении Нелли Уваровой) – маленькая собачка с неподдельной преданностью в огромных глазах, которая дарит радость всем, кто ее окружает. А окружают ее девочка Лиза, подружившаяся с собакой во время летних каникул, старушка Егоровна, продавщица сельмага Рита, первый парень на деревне Жора, гастарбайтер Чебурек и даже кот Барсик.
А обитают они в идиллическом пространстве далекой русской деревни. Художник Николай Симонов разместил на сцене волнообразный деревянный помост, превращающийся то в ухабистую дорогу, то в зимние сугробы, то в извилистую речку, а то и вовсе в уютный деревенский домик с печуркой внутри.
Нелли Уварова отмечает, что ей давно хотелось роли без слов, и образ Лады, не дающий возможности спрятаться за текстом – это серьезный шаг вперед в профессии.
И Марина Брусникина, и Тимур Кибиров смотрят на историю Лады поэтическим взглядом. Только лирика помогает в жизни отдельно взятой деревеньки увидеть, как на ладони, реальность во всем ее многообразии: смешной, грустной, страшной, трепетной, и, главное, наполненной безграничной иронией и любовью.

Дополнительная информация:
Из цикла "Интервью на фоне спектакля"
Страна: Россия .
Выпущено: © "Телеканал Театр".

О спектакле.

О цикле

В этом цикле зрители смогут увидеть интервью с режиссерами и актерами нашумевших премьер и других спектаклей. Фрагменты спектакля перемежаются высказываниями людей, которые участвовали в его создании. Сцены спектакля подобраны специально таким образом, чтобы зритель мог составить свое мнение о нем, получить общее впечатление, уловить настроение и смысловую направленность постановки.
Релиз
Огромное спасибо Доброму человеку за предоставленый материал!!!
Качество видео:...SATRip
Формат:.................AVI
Видео:..720x400 (1.80:1), 25 fps, XviD MPEG-4 ~1693 kbps avg, 0.23 bit/pixel
Аудио:..44.100 kHz, MPEG Layer 3, 2 ch, ~128.00 kbps avg

Отчет Media Info

General
Complete name : Interv'ju.na.fone.spektaklya.Lada.ili.radost.2014.XviD.SATRip.fenixclub.avi
Формат : AVI
Формат/Информация : Audio Video Interleave
Размер файла : 482 Мбайт
Продолжительность : 36 м.
Общий поток : 1831 Кбит/сек
Программа кодирования : VirtualDubModRus 1.5.10.2 (build 2542/release)
Библиотека кодирования : VirtualDubMod build 2542/release
Видео
Идентификатор : 0
Формат : MPEG-4 Visual
Профиль формата : Advanced Simple@L5
Параметр BVOP формата : 2
Параметр QPel формата : Нет
Параметр GMC формата : Без точки перехода
Параметр матрицы формата : Default (MPEG)
Режим смешивания : Сжатый битовый поток
Идентификатор кодека : XVID
Идентификатор кодека/Подсказка : XviD
Продолжительность : 36 м.
Битрейт : 1694 Кбит/сек
Ширина : 720 пикселей
Высота : 400 пикселей
Соотношение сторон : 16:9
Частота кадров : 25,000 кадров/сек
Цветовое пространство : YUV
Субдискретизация насыщенности : 4:2:0
Битовая глубина : 8 бит
Тип развёртки : Прогрессивная
Метод сжатия : С потерями
Бит/(Пиксели*Кадры) : 0.235
Размер потока : 446 Мбайт (92%)
Библиотека кодирования : XviD 1.2.1 (UTC 2008-12-04)
Аудио
Идентификатор : 1
Формат : MPEG Audio
Версия формата : Version 1
Профиль формата : Layer 3
Идентификатор кодека : 55
Идентификатор кодека/Подсказка : MP3
Продолжительность : 36 м.
Вид битрейта : Постоянный
Битрейт : 128 Кбит/сек
Каналы : 2 канала
Частота : 44,1 КГц
Метод сжатия : С потерями
Размер потока : 33,7 Мбайт (7%)
Выравнивание : Разделение по промежуткам
Продолжительность промежутка : 40 мс. (1,00 видеокадр)
Время предзагрузки промежутка : 500 мс.
Библиотека кодирования : LAME3.99r
Настройки программы : -m s -V 4 -q 2 -lowpass 17 -b 128

Скриншоты

Альтернативный хост

[teatrix.ru].t11061.torrent 
Торрент: Зарегистрирован [ 2015-12-07 05:05 ] · D8B089243A6892C8DF7B8701C097273AC8C6C30C

Скачать .torrent

Скачать

19 KB

Статус: проверено
Скачан: 0 раз
Размер: 482 MB
terms.php



Быстрый ответ

Имя:

      
Для отправки сообщений необходимо включить JavaScript
Показать сообщения:    

Текущее время: 18-Янв 00:21

Часовой пояс: UTC + 3


Вы можете начинать темы
Вы можете отвечать на сообщения
Вы не можете редактировать свои сообщения
Вы не можете удалять свои сообщения
Вы не можете голосовать в опросах
Вы не можете прикреплять файлы к сообщениям
Вы можете скачивать файлы